<?xml version="1.0" standalone="no"?>
<!DOCTYPE svg PUBLIC "-//W3C//DTD SVG 1.1//EN" "http://www.w3.org/Graphics/SVG/1.1/DTD/svg11.dtd" >
<!--
2013-9-30: Created.
-->
<svg>
<metadata>
Created by iconfont
</metadata>
<defs>

<font id="loveit" horiz-adv-x="1024" >
  <font-face
    font-family="loveit"
    font-weight="500"
    font-stretch="normal"
    units-per-em="1024"
    ascent="896"
    descent="-128"
  />
    <missing-glyph />
    
    <glyph glyph-name="myspace-fill" unicode="&#59015;" d="M844.928 372.30933300000004c89.941333 0 162.901333 72.661333 162.901333 162.304s-72.96 161.92-162.901333 161.92a162.816 162.816 0 0 1-162.901333-162.56 162.858667 162.858667 0 0 1 162.901333-162.602666v0.938666z m-367.061333-30.08c80.938667 0 146.602667 65.408 146.602666 146.090667S558.848 634.4533329999999 477.866667 634.4533329999999 331.264 568.490667 331.264 487.850667A146.602667 146.602667 0 0 1 477.866667 341.33333300000004v0.896z m-332.8-27.093333c72.96 0 131.968 58.88 131.968 131.456 0 72.704-59.52 131.584-132.48 131.584A131.669333 131.669333 0 0 1 12.8 446.336c0-72.533333 59.178667-131.328 132.053333-131.328l0.213334 0.128z m0-30.08c-83.626667 0-145.066667-73.258667-145.066667-149.12v-51.029333c0-7.253333 5.888-13.226667 13.226667-13.226667h263.68a13.226667 13.226667 0 0 1 13.184 13.226667v51.029333c0 75.904-61.312 149.333333-144.981334 149.333333l-0.042666-0.213333z m332.8 23.893333c-92.970667 0-161.28-81.706667-161.28-166.016v-56.789333c0-8.021333 6.656-14.677333 14.72-14.677333h293.162666a14.677333 14.677333 0 0 1 14.592 14.677333V142.93333299999995c0 84.309333-68.181333 166.016-161.194666 166.016z m367.061333 26.325334c-103.338667 0-179.072-90.709333-179.072-184.448v-63.018667c0-8.96 7.338667-16.256 16.298667-16.256h325.546666c8.96 0 16.341333 7.296 16.341334 16.256v63.018667c-0.042667 93.738667-75.776 184.448-179.114667 184.448z"  horiz-adv-x="1024" />

    
    <glyph glyph-name="instapaper-fill" unicode="&#59634;" d="M426.666667 682.666667C426.666667 706.133333 407.466667 725.333333 384 725.333333L341.333333 725.333333 341.333333 810.666667 682.666667 810.666667 682.666667 725.333333 640 725.333333C616.533333 725.333333 597.333333 706.133333 597.333333 682.666667L597.333333 85.33333300000004C597.333333 61.86666700000001 616.533333 42.66666699999996 640 42.66666699999996L682.666667 42.66666699999996 682.666667-42.66666699999996 341.333333-42.66666699999996 341.333333 42.66666699999996 384 42.66666699999996C407.466667 42.66666699999996 426.666667 61.86666700000001 426.666667 85.33333300000004L426.666667 682.666667Z"  horiz-adv-x="1024" />

    
    <glyph glyph-name="alipay-line" unicode="&#59225;" d="M785.408 179.626667c-92.714667 40.533333-158.72 70.229333-197.973333 89.002666-59.733333-72.362667-122.538667-116.053333-216.746667-116.053333S213.333333 210.602667 220.842667 281.941333c5.12 46.762667 37.205333 123.221333 176.128 109.909334 73.386667-6.826667 106.837333-20.48 166.912-40.277334 15.36 28.330667 28.330667 59.733333 37.888 92.842667H336.213333v26.282667h131.072V517.802667H307.2v29.013333h160.085333V614.741333s1.365333 10.581333 13.312 10.581334H546.133333v-78.848h170.666667v-29.013334h-170.666667v-47.104h139.264a529.493333 529.493333 0 0 0-56.32-141.653333c21.76-7.765333 89.472-28.842667 203.093334-63.274667a341.333333 341.333333 0 1 1-46.762667-85.845333zM512-42.666667C276.352-42.666667 85.333333 148.352 85.333333 384S276.352 810.666667 512 810.666667s426.666667-191.018667 426.666667-426.666667-191.018667-426.666667-426.666667-426.666667z m-152.234667 240.298667c61.44 0 120.490667 37.205333 168.96 100.352-68.608 33.109333-125.610667 49.493333-189.44 49.493333-55.637333 0-84.650667-34.133333-89.770666-60.416-5.12-26.282667 10.581333-89.429333 110.250666-89.429333z"  horiz-adv-x="1024" />

    
    <glyph glyph-name="alipay-fill" unicode="&#59226;" d="M914.005333 240.725333c-163.413333 49.194667-258.346667 78.506667-284.928 87.978667a529.493333 529.493333 0 0 1 56.32 141.653333H546.133333V517.461333h170.666667v29.013334h-170.666667V625.322667h-65.536c-11.946667 0-13.312-10.581333-13.312-10.581334v-67.925333H307.2v-29.013333h160.085333v-47.104H336.213333v-26.282667h265.557334a468.138667 468.138667 0 0 0-37.888-92.842667c-60.074667 19.797333-93.525333 33.450667-166.912 40.277334-138.922667 13.312-171.008-63.146667-176.128-109.909334C213.333333 210.602667 276.48 152.576 370.688 152.576s157.013333 43.690667 216.746667 116.053333c49.792-23.808 142.421333-65.066667 277.930666-123.818666A426.24 426.24 0 0 0 512-42.666667C276.352-42.666667 85.333333 148.352 85.333333 384S276.352 810.666667 512 810.666667s426.666667-191.018667 426.666667-426.666667a425.941333 425.941333 0 0 0-24.661334-143.274667z m-554.24-43.093333c-99.669333 0-115.370667 63.146667-110.250666 89.429333 5.12 26.282667 34.133333 60.416 89.770666 60.416 63.829333 0 120.832-16.384 189.44-49.493333-48.469333-63.146667-107.52-100.352-168.96-100.352z"  horiz-adv-x="1024" />

    
    <glyph glyph-name="angularjs-line" unicode="&#59227;" d="M747.648 185.6l20.906667 11.52 47.701333 414.293333L512 720.085333 207.744 611.456l47.744-414.293333 20.181333-11.221334L512 716.373333l235.648-530.773333z m-46.890667-26.026667h-34.048l-49.877333 124.586667H406.314667l-49.92-124.586667h-33.152L512 54.912l188.757333 104.661333zM512 810.666667l396.8-141.653334-60.501333-525.226666L512-42.666667l-336.298667 186.453334L115.2 669.013333 512 810.666667z m72.448-449.706667L512 535.466667l-72.448-174.506667h144.896z"  horiz-adv-x="1024" />

    
    <glyph glyph-name="android-fill" unicode="&#59228;" d="M272.298667 726.698667A382.378667 382.378667 0 0 0 512 810.666667c90.666667 0 173.994667-31.402667 239.701333-83.968l61.994667 61.994666 60.330667-60.330666-61.994667-61.994667A382.378667 382.378667 0 0 0 896 426.666667v-42.666667H128v42.666667c0 90.666667 31.402667 173.994667 83.968 239.701333L149.973333 728.32l60.330667 60.330667 61.994667-61.994667zM128 298.666667h768v-298.666667a42.666667 42.666667 0 0 0-42.666667-42.666667H170.666667a42.666667 42.666667 0 0 0-42.666667 42.666667v298.666667z m256 213.333333a42.666667 42.666667 0 1 1 0 85.333333 42.666667 42.666667 0 0 1 0-85.333333z m256 0a42.666667 42.666667 0 1 1 0 85.333333 42.666667 42.666667 0 0 1 0-85.333333z"  horiz-adv-x="1024" />

    
    <glyph glyph-name="angularjs-fill" unicode="&#59229;" d="M512 810.666667l396.8-141.653334-60.501333-525.226666L512-42.666667l-336.298667 186.453334L115.2 669.013333 512 810.666667z m0-94.293334L263.936 159.573333h92.501333l49.877334 124.586667h210.517333l49.92-124.586667h92.458667L512 716.373333z m72.448-355.413333h-144.896L512 535.466667l72.448-174.506667z"  horiz-adv-x="1024" />

    
    <glyph glyph-name="apple-fill" unicode="&#59230;" d="M495.957333 587.861333c-37.376 0-95.232 42.496-156.16 40.96-80.384-1.024-154.112-46.592-195.584-118.784-83.456-144.896-21.504-358.912 59.904-476.672 39.936-57.344 87.04-121.856 149.504-119.808 59.904 2.56 82.432 38.912 155.136 38.912 72.192 0 92.672-38.912 156.16-37.376 64.512 1.024 105.472 58.368 144.896 116.224 45.568 66.56 64.512 131.072 65.536 134.656-1.536 0.512-125.44 48.128-126.976 191.488-1.024 119.808 97.792 177.152 102.4 179.712-56.32 82.432-142.848 91.648-173.056 93.696-78.848 6.144-144.896-43.008-181.76-43.008z m133.12 120.832c33.28 39.936 55.296 95.744 49.152 151.04-47.616-2.048-104.96-31.744-139.264-71.68-30.72-35.328-57.344-92.16-50.176-146.432 52.736-4.096 107.008 27.136 140.288 67.072z"  horiz-adv-x="1024" />

    
    <glyph glyph-name="amazon-line" unicode="&#59231;" d="M666.666667 272.213333c-47.232-69.077333-116.394667-101.717333-197.333334-101.717333-98.304 0-182.442667 75.648-170.368 175.957333 13.44 111.274667 99.84 159.146667 243.541334 176.768 25.642667 3.114667 36.266667 4.010667 91.605333 8.106667l5.888 0.426667v9.173333C640 617.557333 594.432 669.866667 533.333333 669.866667c-61.312 0-104.106667-31.872-130.346666-107.776l-80.64 27.818666C360.192 699.562667 434.901333 755.2 533.333333 755.2c111.061333 0 192-92.928 192-214.272 0-113.024 6.954667-202.922667 20.608-237.098667 15.189333-38.058667 20.736-47.658667 37.717334-68.821333l-66.56-53.376c-22.314667 27.818667-32.128 44.757333-50.389334 90.538667v0.042666z m240.298666-252.8c-11.562667-8.533333-31.658667-3.456-22.570666 18.773334 11.306667 27.648 23.338667 60.074667 11.178666 74.752-8.96 10.88-19.925333 16.298667-43.818666 16.298666-19.626667 0-29.44-2.56-42.453334-3.413333-8.704-0.554667-12.501333 12.672-3.882666 18.773333a126.293333 126.293333 0 0 0 37.12 18.261334c49.066667 14.677333 106.88 6.613333 113.92-3.541334 15.573333-22.613333-8.490667-109.610667-49.493334-139.946666z m-50.432 46.250667a322.346667 322.346667 0 0 0-35.413333-29.653333c-90.538667-68.949333-207.786667-104.96-309.674667-104.96-163.968 0-310.613333 76.501333-421.888 204.586666-9.514667 9.813333-1.621333 24.149333 9.514667 16.384 119.893333-88.618667 268.288-142.208 421.930667-142.208 96.64 0 200.874667 22.912 300.16 72.234667 6.912 3.242667 14.677333 7.68 21.461333 10.837333 15.658667 8.96 29.44-13.056 13.909333-27.221333z m-216.106666 380.586667c-53.674667-4.010667-63.829333-4.821333-87.552-7.722667-108.885333-13.354667-162.005333-42.794667-169.173334-102.314667-5.376-44.501333 34.56-80.384 85.632-80.384 86.997333 0 150.058667 52.394667 171.605334 190.421334h-0.512z"  horiz-adv-x="1024" />

    
    <glyph glyph-name="behance-line" unicode="&#59232;" d="M320 426.666667a85.333333 85.333333 0 1 1 0 170.666666H128v-170.666666h192z m42.666667-85.333334H128v-170.666666h234.666667a85.333333 85.333333 0 1 1 0 170.666666z m88.021333 60.928A170.666667 170.666667 0 0 0 362.666667 85.333333H42.666667V682.666667h277.333333a170.666667 170.666667 0 0 0 130.688-280.405334zM661.333333 640H896v-64h-234.666667V640z m320-362.666667h-320v-10.666666A117.333333 117.333333 0 0 1 883.2 213.333333h91.050667a202.752 202.752 0 0 0-398.250667 53.333334v64a202.666667 202.666667 0 1 0 405.333333 0v-53.333334z m-89.770666 85.333334a117.376 117.376 0 0 1-225.792 0h225.792z"  horiz-adv-x="1024" />

    
    <glyph glyph-name="amazon-fill" unicode="&#59233;" d="M938.496 118.186667c0-31.018667-17.28-90.752-56.064-123.562667-7.765333-5.973333-15.573333-2.602667-12.16 6.101333 11.306667 27.648 37.205333 91.605333 25.045333 106.325334-8.533333 11.178667-43.946667 10.368-74.154666 7.765333-13.824-1.749333-25.898667-2.56-35.328-4.48-8.661333-0.725333-10.453333 6.954667-1.749334 12.928 11.178667 7.893333 23.253333 13.866667 37.12 18.261333 49.066667 14.677333 105.813333 5.845333 113.92-3.541333 1.536-1.792 3.413333-6.826667 3.413334-19.754667z m-81.962667-55.210667a316.842667 316.842667 0 0 0-35.413333-23.466667c-90.538667-54.4-207.786667-82.901333-309.674667-82.901333-163.968 0-310.613333 60.458667-421.888 161.621333-9.514667 7.765333-1.621333 19.029333 9.514667 12.928 119.893333-69.973333 268.288-112.298667 421.930667-112.298666a831.146667 831.146667 0 0 1 300.16 57.002666c6.912 2.602667 14.677333 6.144 21.461333 8.618667 15.658667 7.04 29.44-10.368 13.909333-21.504z m-263.253333 470.613333c0 44.416 1.749333 70.570667-12.970667 93.013334-13.056 18.474667-35.541333 29.568-66.901333 27.818666-34.048-1.877333-70.613333-24.192-79.957333-65.109333-1.792-9.386667-7.296-18.602667-18.602667-20.608l-103.936 13.226667c-7.424 1.706667-18.688 7.381333-15.018667 22.229333C318.208 721.578667 418.56 762.496 513.408 768h22.314667c52.053333 0 118.912-14.890667 161.706666-53.930667 51.925333-48.469333 46.421333-113.578667 46.421334-184.32v-167.552c0-50.261333 20.352-72.533333 40.874666-98.730666 5.546667-9.344 7.424-20.352-1.92-27.946667a3245.653333 3245.653333 0 0 0-81.792-70.570667c-7.424-5.674667-20.821333-6.272-26.026666-1.92-32.853333 27.52-40.874667 42.794667-61.226667 70.741334-35.413333-37.162667-65.109333-57.685333-100.48-68.821334a300.16 300.16 0 0 0-76.117333-9.216c-89.173333 0-159.829333 55.594667-159.829334 165.546667 0 87.424 46.506667 146.858667 115.2 174.976 68.693333 28.16 168.533333 37.12 200.704 37.290667z m-20.394667-221.525333c22.186667 37.205333 20.352 67.669333 20.352 135.893333-27.776 0-55.722667-1.92-79.829333-7.594666-44.586667-12.928-79.957333-41.002667-79.957333-100.48 0-46.506667 24.192-78.165333 65.066666-78.165334 5.632 0 10.581333 0.682667 14.890667 1.92 28.586667 7.936 46.421333 22.272 59.477333 48.426667z"  horiz-adv-x="1024" />

    
    <glyph glyph-name="chrome-fill" unicode="&#59234;" d="M419.285333-32.554667C228.266667 9.770667 85.333333 180.181333 85.333333 384c0 77.738667 20.778667 150.613333 57.130667 213.418667l182.741333-316.544a213.290667 213.290667 0 0 1 212.309334-108.714667l-118.186667-204.714667zM512-42.666667l182.912 316.8A212.352 212.352 0 0 1 725.333333 384a212.394667 212.394667 0 0 1-42.666666 128h236.458666A425.813333 425.813333 0 0 0 938.666667 384c0-235.648-191.018667-426.666667-426.666667-426.666667z m109.738667 360.746667a127.957333 127.957333 0 0 0-220.586667 1.92l-1.237333 2.133333a128 128 0 1 0 222.933333-2.133333l-1.109333-1.92z m-424.106667 354.389333A425.557333 425.557333 0 0 0 512 810.666667a426.496 426.496 0 0 0 369.578667-213.333334H512a213.376 213.376 0 0 1-196.224-129.493333L197.632 672.469333z"  horiz-adv-x="1024" />

    
    <glyph glyph-name="apple-line" unicode="&#59235;" d="M671.104 545.792c-20.181333 1.578667-41.856-3.242667-75.050667-15.914667 2.816 1.066667-31.658667-12.373333-41.301333-15.786666-21.418667-7.466667-39.04-11.562667-58.794667-11.562667-19.541333 0-37.546667 3.925333-58.282666 10.88a506.453333 506.453333 0 0 0-21.546667 7.936c-3.498667 1.365333-16.298667 6.485333-19.114667 7.552-27.648 10.837333-43.221333 14.933333-56.149333 14.592-49.152-0.64-95.701333-29.013333-122.709333-76.032-55.125333-95.744-24.618667-268.757333 55.978666-385.322667 42.922667-61.610667 66.389333-83.626667 75.861334-83.328 9.472 0.426667 16.426667 2.432 33.408 9.6l7.125333 3.029334c42.88 18.304 72.96 26.368 118.229333 26.368 43.562667 0 72.661333-7.936 113.834667-25.685334l7.168-3.072c16.981333-7.253333 23.125333-8.874667 33.792-8.618666 15.274667 0.213333 34.090667 17.792 75.861333 79.104 11.434667 16.682667 21.546667 34.261333 30.293334 52.053333a313.770667 313.770667 0 0 0-16.725334 14.805333c-54.997333 52.394667-89.002667 123.050667-89.941333 210.346667a282.666667 282.666667 0 0 0 60.16 178.389333 175.957333 175.957333 0 0 1-52.096 10.666667z m6.613333 85.077333c30.208-2.048 116.736-11.264 173.056-93.696-4.608-2.56-103.424-59.904-102.4-179.712 1.536-143.36 125.44-190.976 126.976-191.488-1.024-3.584-19.968-68.096-65.536-134.656-39.424-57.856-80.384-115.2-144.896-116.224-63.488-1.536-83.968 37.376-156.16 37.376-72.704 0-95.232-36.352-155.136-38.912-62.464-2.048-109.568 62.464-149.504 119.808-81.408 117.76-143.36 331.776-59.904 476.672 41.472 72.192 115.2 117.76 195.584 118.784 60.928 1.536 118.784-40.96 156.16-40.96 36.864 0 102.912 49.152 181.76 43.008z m-48.64 77.824c-33.28-39.936-87.552-71.168-140.288-67.072-7.168 54.272 19.456 111.104 50.176 146.432 34.304 39.936 91.648 69.632 139.264 71.68 6.144-55.296-15.872-111.104-49.152-151.04z"  horiz-adv-x="1024" />

    
    <glyph glyph-name="baidu-fill" unicode="&#59236;" d="M252.885333 362.794667c88.021333 18.901333 76.032 124.117333 73.386667 147.114666-4.309333 35.413333-45.994667 97.365333-102.613333 92.458667-71.253333-6.4-81.621333-109.269333-81.621334-109.269333-9.642667-47.573333 23.04-149.205333 110.848-130.304z m93.44-182.954667c-2.56-7.381333-8.32-26.282667-3.328-42.752 9.813333-36.949333 41.898667-38.613333 41.898667-38.613333h46.08v112.64H381.610667c-22.186667-6.570667-32.853333-23.850667-35.285334-31.274667z m69.888 359.338667c48.64 0 87.893333 55.978667 87.893334 125.141333 0 69.12-39.253333 125.013333-87.893334 125.013333-48.512 0-87.893333-55.893333-87.893333-125.013333 0-69.162667 39.381333-125.141333 87.893333-125.141333z m209.408-8.234667c64.938667-8.448 106.709333 60.885333 115.029334 113.450667 8.490667 52.48-33.450667 113.408-79.445334 123.904-46.08 10.581333-103.637333-63.274667-108.885333-111.36-6.272-58.88 8.405333-117.674667 73.301333-125.994667z m0-147.114667c-79.573333 123.946667-192.554667 73.514667-230.4 10.453334-37.589333-63.018667-96.256-102.826667-104.576-113.408-8.448-10.410667-121.429333-71.381333-96.341333-182.784 25.045333-111.317333 113.152-109.226667 113.152-109.226667s64.896-6.4 140.202667 10.496c75.349333 16.682667 140.202667-4.181333 140.202666-4.181333s176-58.88 224.128 54.528c48.128 113.493333-27.178667 172.288-27.178666 172.288s-100.522667 77.781333-159.232 161.834666z m-256.341333-330.666666c-49.408 9.856-69.077333 43.562667-71.552 49.322666-2.432 5.845333-16.469333 32.938667-9.045333 79.061334 21.333333 69.077333 82.218667 74.026667 82.218666 74.026666h60.928v74.88l51.84-0.853333v-276.437333h-114.346666z m195.84 0.810666c-51.029333 13.141333-53.376 49.408-53.376 49.408v145.578667l53.376 0.853333v-130.816c3.285333-13.994667 20.608-16.512 20.608-16.512h54.229333v146.474667h56.832v-194.986667h-131.669333z m318.037333 388.693334c0 25.173333-20.906667 100.864-98.346666 100.864-77.610667 0-87.978667-71.466667-87.978667-121.984 0-48.213333 4.053333-115.498667 100.437333-113.365334 96.426667 2.133333 85.888 109.226667 85.888 134.485334z"  horiz-adv-x="1024" />

    
    <glyph glyph-name="bilibili-fill" unicode="&#59237;" d="M777.514667 764.330667a53.333333 53.333333 0 0 0 0-75.434667L728.746667 640.170667h49.92A160 160 0 0 0 938.666667 480.128v-320a160 160 0 0 0-160-160H245.333333A160 160 0 0 0 85.333333 160.128v320a160 160 0 0 0 160 160h49.749334L246.4 688.853333a53.333333 53.333333 0 1 0 75.392 75.434667l113.152-113.152c3.370667-3.370667 6.186667-7.04 8.448-10.965333h137.088c2.261333 3.925333 5.12 7.68 8.490667 11.008l113.109333 113.152a53.333333 53.333333 0 0 0 75.434667 0z m1.152-231.253334H245.333333a53.333333 53.333333 0 0 1-53.205333-49.365333l-0.128-4.010667v-320c0-28.117333 21.76-51.157333 49.365333-53.162666l3.968-0.170667h533.333334a53.333333 53.333333 0 0 1 53.205333 49.365333l0.128 3.968v320c0 29.44-23.893333 53.333333-53.333333 53.333334z m-426.666667-106.666666c29.44 0 53.333333-23.893333 53.333333-53.333334v-53.333333a53.333333 53.333333 0 1 0-106.666666 0v53.333333c0 29.44 23.893333 53.333333 53.333333 53.333334z m320 0c29.44 0 53.333333-23.893333 53.333333-53.333334v-53.333333a53.333333 53.333333 0 1 0-106.666666 0v53.333333c0 29.44 23.893333 53.333333 53.333333 53.333334z"  horiz-adv-x="1024" />

    
    <glyph glyph-name="codepen-line" unicode="&#59238;" d="M704 332.714667L554.666667 233.173333v-153.429333L819.072 256 704 332.714667zM627.072 384L512 460.714667 396.928 384 512 307.285333 627.072 384zM853.333333 432.256L780.928 384 853.333333 335.744V432.213333zM819.072 512L554.666667 688.256v-153.429333l149.333333-99.541334L819.072 512zM320 435.285333L469.333333 534.826667V688.256L204.928 512 320 435.285333zM204.928 256L469.333333 79.744v153.429333l-149.333333 99.541334L204.928 256zM170.666667 335.744L243.072 384 170.666667 432.256v-96.512zM85.333333 512a42.666667 42.666667 0 0 0 18.986667 35.498667l384 256a42.666667 42.666667 0 0 0 47.36 0l384-256A42.666667 42.666667 0 0 0 938.666667 512v-256a42.666667 42.666667 0 0 0-18.986667-35.498667l-384-256a42.666667 42.666667 0 0 0-47.36 0l-384 256A42.666667 42.666667 0 0 0 85.333333 256V512z"  horiz-adv-x="1024" />

    
    <glyph glyph-name="coreos-line" unicode="&#59239;" d="M401.92 708.266667a341.333333 341.333333 0 1 1 435.285333-422.826667c-145.066667-62.293333-309.248-84.48-492.586666-66.773333-30.336 176.042667-11.264 339.2 57.301333 489.6z m104.448 17.664a717.013333 717.013333 0 0 1-65.792-160.810667 255.146667 255.146667 0 0 0 175.573333-74.922667 255.018667 255.018667 0 0 0 74.453334-164.736c56.746667 14.549333 110.464 34.986667 161.28 61.141334a341.077333 341.077333 0 0 1-345.514667 339.328zM208.853333 82.901333C42.24 249.514667 42.24 519.68 208.853333 686.293333c166.613333 166.613333 436.778667 166.613333 603.392 0 166.613333-166.613333 166.613333-436.778667 0-603.392-166.613333-166.613333-436.778667-166.613333-603.392 0z m214.186667 396.501334a763.093333 763.093333 0 0 1-3.242667-180.437334 987.477333 987.477333 0 0 1 186.026667 9.386667 170.154667 170.154667 0 0 1-50.005333 121.514667 170.24 170.24 0 0 1-132.778667 49.536z"  horiz-adv-x="1024" />

    
    <glyph glyph-name="bilibili-line" unicode="&#59240;" d="M306.005333 778.368L444.330667 640h135.296l138.368 138.325333a42.666667 42.666667 0 0 0 60.373333-60.373333L700.330667 640H789.333333A149.333333 149.333333 0 0 0 938.666667 490.666667v-341.333334a149.333333 149.333333 0 0 0-149.333334-149.333333h-554.666666A149.333333 149.333333 0 0 0 85.333333 149.333333v341.333334A149.333333 149.333333 0 0 0 234.666667 640h88.96L245.632 718.037333a42.666667 42.666667 0 0 0 60.373333 60.373334zM789.333333 554.666667h-554.666666a64 64 0 0 1-63.701334-57.856L170.666667 490.666667v-341.333334a64 64 0 0 1 57.856-63.701333L234.666667 85.333333h554.666666a64 64 0 0 1 63.701334 57.856L853.333333 149.333333v341.333334A64 64 0 0 1 789.333333 554.666667zM341.333333 426.666667a42.666667 42.666667 0 0 0 42.666667-42.666667v-85.333333a42.666667 42.666667 0 0 0-85.333333 0v85.333333a42.666667 42.666667 0 0 0 42.666666 42.666667z m341.333334 0a42.666667 42.666667 0 0 0 42.666666-42.666667v-85.333333a42.666667 42.666667 0 0 0-85.333333 0v85.333333a42.666667 42.666667 0 0 0 42.666667 42.666667z"  horiz-adv-x="1024" />

    
    <glyph glyph-name="baidu-line" unicode="&#59241;" d="M322.730667 73.386667a413.44 413.44 0 0 1 106.496 9.258666 375.466667 375.466667 0 0 0 127.146666 5.589334c23.338667-2.858667 42.026667-7.04 54.954667-10.965334 45.994667-11.733333 111.36-9.514667 128.213333 17.493334 12.416 19.968 10.794667 33.578667-1.109333 51.157333a80.469333 80.469333 0 0 1-9.045333 11.093333 1066.922667 1066.922667 0 0 0-31.701334 26.368 1093.034667 1093.034667 0 0 0-74.794666 70.826667 689.109333 689.109333 0 0 0-67.285334 80.768l-1.536 2.261333c-31.658667 48.597333-66.474667 45.525333-85.418666 13.525334a409.770667 409.770667 0 0 0-40.746667-56.789334c-17.493333-20.565333-35.413333-37.973333-55.68-55.338666-5.248-4.48-21.461333-17.92-17.578667-14.677334-0.170667-0.128-0.725333-0.64 2.176 3.029334-4.181333-5.12-40.533333-37.418667-51.2-49.578667-21.973333-24.874667-30.848-46.08-27.52-63.146667 3.072-16.042667 9.344-25.045333 19.2-31.786666a61.098667 61.098667 0 0 1 20.48-8.789334l4.949334-0.298666z m302.848 310.442666c58.709333-84.053333 159.232-161.834667 159.232-161.834666s88.021333-74.581333 27.178666-172.288c-60.842667-97.706667-224.128-54.528-224.128-54.528s-64.853333 20.906667-140.202666 4.181333c-75.306667-16.853333-140.202667-10.453333-140.202667-10.453333S213.333333-0.64 194.304 98.090667c-19.029333 98.730667 87.893333 172.373333 96.341333 182.784 8.32 10.538667 64.512 45.781333 104.618667 113.408 40.106667 67.669333 152.874667 108.373333 230.314667-10.453334z m236.330666 60.586667c0-19.541333 8.106667-102.101333-66.261333-103.765333-74.325333-1.621333-77.482667 50.261333-77.482667 87.466666 0 38.954667 8.021333 94.08 67.84 94.08 59.733333 0 75.904-58.410667 75.904-77.824z m-231.68 118.485333c-50.346667 6.485333-61.738667 52.138667-56.874666 97.834667 4.096 37.333333 48.768 94.677333 84.522666 86.442667 35.712-8.106667 68.266667-55.466667 61.696-96.170667-6.442667-40.832-38.869333-94.634667-89.344-88.106667zM416.213333 578.56c-36.693333 0-66.56 42.368-66.56 94.72 0 52.352 29.824 94.72 66.56 94.72 36.821333 0 66.56-42.368 66.56-94.72 0-52.352-29.738667-94.72-66.56-94.72z m-161.834666-194.816c-72.32-15.573333-99.242667 68.138667-91.306667 107.306667 0 0 8.533333 84.778667 67.242667 90.026666 46.634667 4.053333 80.981333-46.976 84.522666-76.16 2.176-18.944 12.074667-105.6-60.458666-121.173333z"  horiz-adv-x="1024" />

    
    <glyph glyph-name="discord-line" unicode="&#59242;" d="M593.664 273.92a383.914667 383.914667 0 0 0-20.650667-4.437333 301.226667 301.226667 0 0 0-113.664 0.426666c-6.570667 1.28-15.872 3.541333-27.861333 6.741334l-39.296-51.072c-96.981333 3.114667-133.845333 68.096-133.845333 68.096 0 144.256 63.189333 261.205333 63.189333 261.205333 63.189333 48.341333 123.306667 47.018667 123.306667 47.018667l17.194666-22.4a47.786667 47.786667 0 0 0 4.778667 0.426666 363.818667 363.818667 0 0 0 98.730667-0.426666l18.858666 22.4s60.16 1.322667 123.306667-47.061334c0 0 63.232-116.906667 63.232-261.162666 0 0-37.333333-64.938667-134.314667-68.096l-42.965333 48.384zM429.909333 426.666667C404.266667 426.666667 384 407.466667 384 384s20.693333-42.666667 45.909333-42.666667c25.6 0 45.866667 19.2 45.866667 42.666667 0.426667 23.466667-20.224 42.666667-45.866667 42.666667z m164.181334 0c-25.6 0-45.866667-19.2-45.866667-42.666667s20.693333-42.666667 45.866667-42.666667c25.642667 0 45.909333 19.2 45.909333 42.666667s-20.266667 42.666667-45.909333 42.666667zM896-85.333333l-212.906667 213.333333H810.666667V725.333333H213.333333v-597.333333h469.461334l24.32-85.333333H213.333333a85.333333 85.333333 0 0 0-85.333333 85.333333V725.333333a85.333333 85.333333 0 0 0 85.333333 85.333334h597.333334a85.333333 85.333333 0 0 0 85.333333-85.333334v-810.666666z"  horiz-adv-x="1024" />

    
    <glyph glyph-name="dingding-fill" unicode="&#59243;" d="M512 810.666667C276.352 810.666667 85.333333 619.648 85.333333 384s191.018667-426.666667 426.666667-426.666667 426.666667 191.018667 426.666667 426.666667S747.648 810.666667 512 810.666667z m191.573333-385.706667l-0.256-0.597333c-17.92-38.314667-64.682667-113.493333-64.682666-113.493334l-0.213334 0.512-13.653333-23.808h65.834667l-125.781334-167.210666 28.586667 113.749333h-51.84l18.005333 75.221333a721.493333 721.493333 0 0 1-52.181333-14.890666s-27.562667-16.128-79.445333 31.104c0 0-34.986667 30.805333-14.677334 38.485333 8.618667 3.285333 41.856 7.466667 68.010667 10.965333 35.413333 4.778667 57.130667 7.338667 57.130667 7.338667s-109.013333-1.621333-134.869334 2.432c-25.856 4.053333-58.666667 47.232-65.664 85.162667 0 0-10.794667 20.821333 23.253334 10.965333 34.048-9.856 174.976-38.4 174.976-38.4S352.853333 498.688 340.608 512.426667c-12.202667 13.653333-35.882667 74.837333-32.810667 112.384 0 0 1.322667 9.386667 10.965334 6.826666 0 0 135.509333-61.866667 228.138666-95.786666 92.672-33.92 173.226667-51.157333 162.816-95.061334-0.853333-3.712-3.072-9.216-6.144-15.786666z"  horiz-adv-x="1024" />

    
    <glyph glyph-name="douban-line" unicode="&#59244;" d="M651.648 256H213.333333V597.333333h597.333334v-341.333333h-69.290667l-55.466667-170.666667H896v-85.333333H128v85.333333h196.778667L290.133333 192l81.152 26.368L414.506667 85.333333h181.717333l55.466667 170.666667zM149.333333 768h725.333334v-85.333333h-725.333334V768zM298.666667 512v-170.666667h426.666666V512H298.666667z"  horiz-adv-x="1024" />

    
    <glyph glyph-name="coreos-fill" unicode="&#59245;" d="M512-42.666667C276.352-42.666667 85.333333 148.352 85.333333 384S276.352 810.666667 512 810.666667s426.666667-191.018667 426.666667-426.666667-191.018667-426.666667-426.666667-426.666667z m-156.629333 413.696c-1.706667-36.266667 1.578667-72.405333 5.034666-108.544 0.213333-2.56 1.152-3.157333 3.413334-3.413333 17.322667-2.304 34.688-4.352 52.138666-5.418667 41.130667-2.602667 82.261333-5.930667 123.562667-3.626666 23.466667 1.28 46.933333 2.048 70.314667 4.053333a878.506667 878.506667 0 0 1 99.413333 13.312c40.874667 8.277333 81.365333 18.133333 119.466667 36.053333 17.322667 8.106667 33.706667 17.706667 47.530666 31.402667 10.154667 10.026667 17.408 21.632 17.493334 36.693333a380.586667 380.586667 0 0 1-1.92 40.106667 384.938667 384.938667 0 0 1-20.522667 93.013333c-24.917333 69.034667-64.426667 127.530667-120.576 173.653334a378.453333 378.453333 0 0 1-164.309333 79.488c-21.333333 4.48-42.922667 6.144-64.597334 7.68-24.448 1.749333-45.397333-5.12-63.488-21.930667-21.12-19.498667-35.712-43.690667-47.872-69.674667-28.458667-60.885333-41.514667-126.037333-49.749333-192.341333a649.173333 649.173333 0 0 1-5.333333-110.506667z m152.32 214.613334c40.917333-1.28 75.52-13.824 106.410666-36.522667a184.576 184.576 0 0 0 73.130667-111.445333c2.901333-12.970667 4.138667-26.112 4.394667-39.338667 0.213333-8.917333-4.693333-15.445333-11.178667-20.906667-13.098667-11.008-28.586667-17.109333-44.8-21.674666-31.573333-8.832-63.829333-13.909333-96.64-15.616-21.333333-1.109333-42.666667-1.493333-64-0.426667-8.192 0.426667-16.426667 1.024-24.618667 1.365333-2.56 0.085333-3.413333 0.853333-3.584 3.456-0.981333 18.517333-2.432 37.034667-2.133333 55.552 0.682667 43.776 4.010667 87.253333 16.938667 129.450667 4.266667 14.037333 9.514667 27.733333 17.92 39.936 7.381333 10.666667 16.128 18.645333 28.16 16.213333z"  horiz-adv-x="1024" />

    
    <glyph glyph-name="drive-line" unicode="&#59246;" d="M388.138667 633.6L183.893333 279.765333l74.88-129.365333 204.16 353.706667L388.138667 633.6z m-55.466667-525.824h408.234667l74.709333 129.450667H407.466667l-74.752-129.450667z m482.730667 214.784l-204.202667 353.706667H462.08l204.245333-353.706667h149.12zM363.52 761.6h296.96L938.666667 279.722667l-148.48-257.28H234.24L85.333333 279.722667 363.52 761.6z m148.693333-342.869333l-55.552-96.170667h111.061334l-55.509334 96.170667z"  horiz-adv-x="1024" />

    
    <glyph glyph-name="dribbble-fill" unicode="&#59247;" d="M512 810.666667C276.48 810.666667 85.333333 619.52 85.333333 384s191.146667-426.666667 426.666667-426.666667c235.093333 0 426.666667 191.146667 426.666667 426.666667S747.093333 810.666667 512 810.666667z m281.813333-196.693334a362.752 362.752 0 0 0 82.346667-226.730666c-11.989333 2.304-132.309333 26.837333-253.568 11.562666-2.773333 6.016-5.12 12.501333-7.850667 18.986667a1084.757333 1084.757333 0 0 1-24.064 52.736c134.186667 54.613333 195.285333 133.290667 203.136 143.445333zM512 747.733333c92.586667 0 177.237333-34.730667 241.578667-91.648-6.485333-9.216-61.568-82.816-191.146667-131.413333-59.690667 109.653333-125.866667 199.466667-136.064 213.333333A370.602667 370.602667 0 0 0 512 747.733333z m-155.008-34.261333a2299.861333 2299.861333 0 0 0 135.125333-210.56c-170.325333-45.354667-320.725333-44.373333-336.896-44.373333a366.122667 366.122667 0 0 0 201.770667 254.933333zM147.328 383.573333v11.093334c15.786667-0.426667 192.512-2.773333 374.4 51.84 10.666667-20.352 20.352-41.173333 29.610667-61.994667-4.650667-1.408-9.728-2.773333-14.336-4.181333-187.904-60.586667-287.872-226.261333-296.192-240.170667a363.605333 363.605333 0 0 0-93.44 243.413333zM512 19.328a361.898667 361.898667 0 0 0-223.530667 76.8c6.485333 13.44 80.554667 155.989333 285.994667 227.712 0.938667 0.426667 1.408 0.426667 2.304 0.938667a1506.517333 1506.517333 0 0 0 77.781333-276.266667 358.4 358.4 0 0 0-142.549333-29.184z m203.136 62.506667c-3.669333 22.186667-23.125333 128.64-70.826667 259.584 114.346667 18.048 214.314667-11.562667 226.773334-15.744a361.301333 361.301333 0 0 0-155.946667-243.84z"  horiz-adv-x="1024" />

    
    <glyph glyph-name="drive-fill" unicode="&#59248;" d="M338.773333 719.104l148.565334-257.28-253.44-439.168L85.333333 279.893333 338.773333 719.104z m92.842667-439.210667H938.666667l-148.565334-257.237333H283.093333l148.522667 257.237333z m185.301333 42.666667L363.434667 761.813333h297.130666l253.44-439.253333H616.96z"  horiz-adv-x="1024" />

    
    <glyph glyph-name="edge-fill" unicode="&#59249;" d="M880.810667 529.664c-7.253333 30.336-18.816 61.781333-33.024 86.229333-32.896 56.704-62.464 95.445333-135.552 141.653334C639.146667 803.754667 557.909333 810.666667 519.253333 810.666667c-103.04 0-179.669333-36.693333-235.733333-80.512C142.677333 619.946667 128 426.666667 128 426.666667s52.096 87.253333 151.04 150.442666C338.901333 615.296 424.149333 640 493.568 640 677.76 640 682.666667 469.333333 682.666667 469.333333H384c0 85.333333 42.666667 128 42.666667 128s-213.333333-85.333333-213.333334-300.544c0-20.778667-0.128-58.538667 10.581334-97.408 9.898667-35.968 29.866667-72.746667 48.298666-100.394666 52.096-78.165333 129.92-111.530667 167.082667-123.904 42.496-14.165333 86.570667-17.749333 128.426667-17.749334 116.053333 0 208.085333 37.802667 242.944 54.4v178.005334c-32.341333-19.370667-114.304-61.738667-213.333334-61.738667-213.333333 0-213.333333 170.666667-213.333333 170.666667h512v106.24s-1.664 67.968-15.189333 124.757333z"  horiz-adv-x="1024" />

    
    <glyph glyph-name="dropbox-fill" unicode="&#59250;" d="M737.493333 440.832l222.506667-141.781333-224.085333-142.762667L512 298.965333l-223.914667-142.677333L64 299.093333l222.506667 141.781334L64 582.570667 288.085333 725.333333 512 582.698667 735.914667 725.333333 960 582.570667l-222.506667-141.738667z m-3.157333 0L512 582.485333l-222.336-141.653333L512 299.178667l222.336 141.653333zM289.536 108.970667l224.085333 142.762666 224.085334-142.762666-224.085334-142.762667-224.085333 142.762667z"  horiz-adv-x="1024" />

    
    <glyph glyph-name="discord-fill" unicode="&#59251;" d="M429.909333 426.666667c25.6 0 46.336-19.2 45.866667-42.666667 0-23.466667-20.224-42.666667-45.866667-42.666667C404.736 341.333333 384 360.533333 384 384s20.266667 42.666667 45.909333 42.666667z m164.181334 0c25.642667 0 45.909333-19.2 45.909333-42.666667s-20.266667-42.666667-45.909333-42.666667c-25.173333 0-45.866667 19.2-45.866667 42.666667s20.224 42.666667 45.866667 42.666667z m211.925333 384C855.637333 810.666667 896 769.450667 896 718.378667V-85.333333l-94.336 85.12-53.12 50.176-56.192 53.333333 23.296-82.901333H217.984C168.362667 20.394667 128 61.610667 128 112.682667V718.378667C128 769.450667 168.362667 810.666667 217.984 810.666667H805.973333z m-169.386667-585.088c96.981333 3.114667 134.314667 68.096 134.314667 68.096 0 144.256-63.232 261.205333-63.232 261.205333-63.146667 48.341333-123.306667 47.018667-123.306667 47.018667l-6.144-7.168c74.624-23.296 109.269333-56.917333 109.269334-56.917334a352.554667 352.554667 0 0 1-132.096 43.008 363.818667 363.818667 0 0 1-88.618667-0.853333c-2.645333 0-4.864-0.469333-7.466667-0.896-15.36-1.365333-52.693333-7.168-99.626666-28.245333-16.213333-7.594667-25.898667-13.013333-25.898667-13.013334s36.437333 35.413333 115.413333 58.709334l-4.394666 5.376s-60.117333 1.322667-123.306667-47.061334c0 0-63.189333-116.906667-63.189333-261.162666 0 0 36.864-64.938667 133.845333-68.096 0 0 16.213333 20.138667 29.44 37.162666-55.765333 17.066667-76.8 52.906667-76.8 52.906667s4.352-3.157333 12.245333-7.637333c0.426667-0.426667 0.853333-0.896 1.749334-1.322667 1.322667-0.938667 2.645333-1.365333 3.968-2.261333 10.965333-6.272 21.930667-11.178667 32-15.232 18.005333-7.168 39.509333-14.336 64.554666-19.285334a301.226667 301.226667 0 0 1 113.664-0.426666 284.416 284.416 0 0 1 63.616 19.242666c15.36 5.845333 32.469333 14.378667 50.474667 26.453334 0 0-21.930667-36.736-79.445333-53.333334 13.184-17.024 29.013333-36.266667 29.013333-36.266666z"  horiz-adv-x="1024" />

    
    <glyph glyph-name="edge-line" unicode="&#59252;" d="M341.632 298.624A194.517333 194.517333 0 0 1 341.333333 288C341.333333 186.368 416.128 85.333333 554.666667 85.333333c101.248 0 193.194667 27.946667 256 66.261334v-142.933334C734.336-24.064 644.821333-42.666667 554.666667-42.666667c-234.752 0-341.333333 148.053333-341.333334 330.666667 0 137.856 87.082667 256 210.901334 305.664C364.330667 526.378667 341.333333 454.784 341.333333 426.837333L768 426.666667c0 145.322667-108.714667 256-256 256-213.333333 0-341.376-170.154667-384-255.957334C140.373333 629.888 299.093333 810.666667 512 810.666667c221.866667 0 384-171.946667 384-384v-128H341.333333l0.298667-0.042667z"  horiz-adv-x="1024" />

    
    <glyph glyph-name="android-line" unicode="&#59253;" d="M810.666667 341.333333H213.333333v-298.666666h597.333334v298.666666z m0 85.333334a298.666667 298.666667 0 0 1-597.333334 0h597.333334zM272.298667 726.698667A382.378667 382.378667 0 0 0 512 810.666667c90.666667 0 173.994667-31.402667 239.701333-83.968l61.994667 61.994666 60.330667-60.330666-61.994667-61.994667A382.378667 382.378667 0 0 0 896 426.666667v-426.666667a42.666667 42.666667 0 0 0-42.666667-42.666667H170.666667a42.666667 42.666667 0 0 0-42.666667 42.666667V426.666667c0 90.666667 31.402667 173.994667 83.968 239.701333L149.973333 728.32l60.330667 60.330667 61.994667-61.994667zM384 512a42.666667 42.666667 0 1 0 0 85.333333 42.666667 42.666667 0 0 0 0-85.333333z m256 0a42.666667 42.666667 0 1 0 0 85.333333 42.666667 42.666667 0 0 0 0-85.333333z"  horiz-adv-x="1024" />

    
    <glyph glyph-name="facebook-circle-fill" unicode="&#59254;" d="M512 810.666667C276.352 810.666667 85.333333 619.648 85.333333 384c0-212.949333 156.032-389.461333 360.021334-421.504V260.693333h-108.373334V384h108.373334V477.994667c0 106.922667 63.658667 165.973333 161.152 165.973333 46.677333 0 95.488-8.32 95.488-8.32v-104.96h-53.76c-53.034667 0-69.546667-32.896-69.546667-66.645333V384h118.314667l-18.901334-123.306667h-99.413333v-298.197333C782.634667-5.504 938.666667 171.093333 938.666667 384c0 235.648-191.018667 426.666667-426.666667 426.666667z"  horiz-adv-x="1024" />

    
    <glyph glyph-name="facebook-line" unicode="&#59255;" d="M554.666667 512h192l-21.333334-85.333333h-170.666666v-384h-85.333334v384H298.666667V512h170.666666V591.872c0 76.074667 7.936 103.68 22.784 131.498667a155.093333 155.093333 0 0 0 64.512 64.512C584.448 802.730667 612.053333 810.666667 688.128 810.666667c22.272 0 41.813333-2.133333 58.538667-6.4V725.333333h-58.538667c-56.490667 0-73.685333-3.328-91.221333-12.714666-12.970667-6.912-22.613333-16.554667-29.525334-29.525334-9.386667-17.536-12.714667-34.730667-12.714666-91.221333V512z"  horiz-adv-x="1024" />

    
    <glyph glyph-name="evernote-line" unicode="&#59256;" d="M448 533.333333a42.666667 42.666667 0 0 0-42.666667-42.666666H256.042667c-14.336 0-21.376-11.136-21.376-22.698667 0-56.32 10.837333-101.205333 28.330666-136.234667 9.216-18.474667 17.024-28.586667 22.314667-33.706666 31.36-32.426667 80.469333-49.493333 131.925333-46.464 4.053333 0.256 8.490667 2.730667 14.165334 8.874666a64.426667 64.426667 0 0 1 9.130666 12.501334 85.333333 85.333333 0 0 0 107.989334 45.781333c29.568-11.008 54.485333-18.517333 77.354666-23.893333 8.362667-1.962667 16-3.541333 25.002667-5.205334-3.285333 0.597333 17.152-3.157333 22.101333-4.181333 14.506667-2.986667 25.514667-6.229333 37.674667-12.373333a217.045333 217.045333 0 0 0 75.733333-62.933334 1383.253333 1383.253333 0 0 1 3.712 86.442667 1458.432 1458.432 0 0 1-23.850666 284.714667c-3.157333 16.981333-10.069333 23.978667-28.288 30.634666a164.138667 164.138667 0 0 1-25.045334 6.613334c-6.272 1.194667-27.733333 4.693333-29.568 5.034666a54314.666667 54314.666667 0 0 0-99.84 17.450667l-22.528 3.925333a85.333333 85.333333 0 0 0-65.024 53.76 489.258667 489.258667 0 0 1-1.450666 3.754667 238.72 238.72 0 0 1-29.952 1.536c-11.562667 0-16.554667-5.290667-16.554667-19.754667V533.333333z m265.813333-496.597333c15.018667 15.189333 23.893333 35.370667 25.045334 56.618667 2.304 44.202667-35.157333 105.813333-98.858667 112.384-26.325333 2.688-67.669333 13.056-121.258667 33.024 0 0-29.866667-68.394667-96.426666-72.362667-71.04-4.266667-146.346667 18.474667-198.4 72.362667 0 0-74.581333 69.973333-74.581334 229.205333 0 34.730667 12.373333 60.672 27.648 81.237333 40.96 55.125333 106.88 118.613333 176.341334 183.637334C384 761.6 413.909333 789.333333 464.554667 789.333333c87.04 0 98.986667-28.330667 111.146666-60.330666l121.770667-21.290667c38.698667-7.082667 134.4-13.482667 152.661333-110.677333 42.922667-231.253333 19.541333-421.12 14.805334-455.466667-30.293333-218.496-203.605333-207.829333-210.389334-207.829333-87.850667 0-135.594667 58.581333-135.808 114.218666a106.410667 106.410667 0 0 0 44.288 86.784 110.336 110.336 0 0 0 65.152 20.394667c13.013333 0 29.312-13.568 29.312-32.128a31.573333 31.573333 0 0 0-16.298666-27.52c-9.514667-5.290667-47.872-7.424-47.872-36.906667 0-13.525333 14.933333-47.530667 59.136-47.530666a86.613333 86.613333 0 0 1 61.312 25.685333z m-76.629333 405.76c7.082667 17.706667 26.752 26.965333 50.005333 24.832 23.210667-2.858667 40.789333-17.066667 42.922667-36.181333 0-3.541333 0.725333-7.808-0.725333-9.941334-1.365333-2.133333-2.816-2.858667-4.266667-2.858666-9.088-1.408-23.168 0-43.562667 2.133333-20.48 2.133333-34.474667 4.266667-42.922666 8.533333-1.408 0.725333-2.816 1.408-3.541334 3.541334s0.682667 6.4 2.133334 9.941333z"  horiz-adv-x="1024" />

    
    <glyph glyph-name="facebook-fill" unicode="&#59257;" d="M597.333333 320h106.666667l42.666667 170.666667H597.333333v85.333333c0 43.946667 0 85.333333 85.333334 85.333333h64V804.693333c-13.909333 1.834667-66.432 5.973333-121.898667 5.973334C508.928 810.666667 426.666667 739.968 426.666667 610.133333v-119.466666H298.666667v-170.666667h128V-42.666667h170.666666v362.666667z"  horiz-adv-x="1024" />

    
    <glyph glyph-name="dingding-line" unicode="&#59258;" d="M512 725.333333a341.333333 341.333333 0 1 1 0-682.666666 341.333333 341.333333 0 0 1 0 682.666666z m0 85.333334c235.648 0 426.666667-191.018667 426.666667-426.666667s-191.018667-426.666667-426.666667-426.666667S85.333333 148.352 85.333333 384 276.352 810.666667 512 810.666667z m191.573333-385.706667l-0.256-0.597333c-17.92-38.314667-64.682667-113.493333-64.682666-113.493334l-0.213334 0.512-13.653333-23.808h65.834667l-125.781334-167.210666 28.586667 113.749333h-51.84l18.005333 75.221333a721.493333 721.493333 0 0 1-52.181333-14.890666s-27.562667-16.128-79.445333 31.104c0 0-34.986667 30.805333-14.677334 38.485333 8.618667 3.285333 41.856 7.466667 68.010667 10.965333 35.413333 4.778667 57.130667 7.338667 57.130667 7.338667s-109.013333-1.621333-134.869334 2.432c-25.856 4.053333-58.666667 47.232-65.664 85.162667 0 0-10.794667 20.821333 23.253334 10.965333 34.048-9.856 174.976-38.4 174.976-38.4S352.853333 498.688 340.608 512.426667c-12.202667 13.653333-35.882667 74.837333-32.810667 112.384 0 0 1.322667 9.386667 10.965334 6.826666 0 0 135.509333-61.866667 228.138666-95.786666 92.672-33.92 173.226667-51.157333 162.816-95.061334-0.853333-3.712-3.072-9.216-6.144-15.786666z"  horiz-adv-x="1024" />

    
    <glyph glyph-name="facebook-box-line" unicode="&#59259;" d="M597.333333 85.333333h213.333334V682.666667H213.333333v-597.333334h298.666667v213.333334h-85.333333v85.333333h85.333333v70.570667c0 57.045333 5.973333 77.738667 17.066667 98.602666A116.309333 116.309333 0 0 0 577.536 601.6c16.298667 8.746667 36.565333 13.994667 71.978667 16.256 14.037333 0.896 32.213333-0.213333 54.528-3.413333v-81.066667H682.666667c-39.125333 0-55.296-1.834667-64.938667-6.997333a31.018667 31.018667 0 0 1-13.397333-13.397334c-5.12-9.642667-6.997333-19.2-6.997334-58.368V384h106.666667l-21.333333-85.333333h-85.333334v-213.333334zM170.666667 768h682.666666a42.666667 42.666667 0 0 0 42.666667-42.666667v-682.666666a42.666667 42.666667 0 0 0-42.666667-42.666667H170.666667a42.666667 42.666667 0 0 0-42.666667 42.666667V725.333333a42.666667 42.666667 0 0 0 42.666667 42.666667z"  horiz-adv-x="1024" />

    
    <glyph glyph-name="facebook-box-fill" unicode="&#59260;" d="M657.152 0v297.216h99.541333l14.890667 115.541333h-114.432V486.485333c0 33.450667 9.301333 56.277333 57.258667 56.277334h61.184V646.101333a818.773333 818.773333 0 0 1-89.173334 4.565334c-88.192 0-148.565333-53.845333-148.565333-152.746667v-85.162667h-99.754667v-115.541333h99.754667V0H170.666667a42.666667 42.666667 0 0 0-42.666667 42.666667V725.333333a42.666667 42.666667 0 0 0 42.666667 42.666667h682.666666a42.666667 42.666667 0 0 0 42.666667-42.666667v-682.666666a42.666667 42.666667 0 0 0-42.666667-42.666667h-196.181333z"  horiz-adv-x="1024" />

    
    <glyph glyph-name="dribbble-line" unicode="&#59261;" d="M852.864 402.261333a339.626667 339.626667 0 0 1-67.114667 185.642667 415.957333 415.957333 0 0 0-39.253333-37.12 561.365333 561.365333 0 0 0-141.354667-85.76c7.125333-14.933333 13.653333-29.397333 19.413334-43.050667v-0.128a391.936 391.936 0 0 0 4.693333-11.52c64.597333 7.253333 132.693333 4.608 198.698667-4.309333 8.789333-1.194667 17.066667-2.474667 24.917333-3.754667z m-400.426667 317.866667a1969.664 1969.664 0 0 0 114.858667-182.186667c52.181333 20.565333 95.317333 46.506667 130.048 75.392a336.213333 336.213333 0 0 1 33.962667 32.213334A339.968 339.968 0 0 1 512 725.333333a343.466667 343.466667 0 0 1-59.562667-5.162666zM181.461333 469.461333a1246.293333 1246.293333 0 0 1 87.04 5.248 1345.28 1345.28 0 0 1 207.445334 35.072 2319.573333 2319.573333 0 0 1-115.2 180.352 342.101333 342.101333 0 0 1-179.285334-220.672z m65.28-300.288c16.554667 24.192 38.314667 51.413333 67.2 81.024 62.037333 63.573333 135.253333 113.066667 219.989334 140.373334l2.645333 0.768c-7.04 15.530667-13.653333 29.397333-20.309333 42.453333-78.336-22.826667-160.853333-37.077333-243.072-44.458667-40.106667-3.626667-76.074667-5.205333-102.528-5.461333a339.925333 339.925333 0 0 1 76.117333-214.698667z m393.472-101.546666a1533.738667 1533.738667 0 0 1-69.632 243.584c-85.418667-31.018667-153.472-76.373333-206.08-130.474667a416.853333 416.853333 0 0 1-56.192-70.613333A339.797333 339.797333 0 0 1 512 42.666667a340.352 340.352 0 0 1 128.213333 24.874666z m79.914667 45.866666a341.248 341.248 0 0 1 127.445333 207.786667c-14.506667 3.626667-32.896 7.253333-53.12 10.069333a512.981333 512.981333 0 0 1-135.68 1.408 1679.701333 1679.701333 0 0 0 61.354667-219.306666zM512-42.666667C276.352-42.666667 85.333333 148.352 85.333333 384S276.352 810.666667 512 810.666667s426.666667-191.018667 426.666667-426.666667-191.018667-426.666667-426.666667-426.666667z"  horiz-adv-x="1024" />

    
    <glyph glyph-name="douban-fill" unicode="&#59262;" d="M696.064 79.445333h173.44a26.453333 26.453333 0 0 0 26.496-26.453333v-26.496a26.453333 26.453333 0 0 0-26.453333-26.496H154.453333a26.453333 26.453333 0 0 0-26.453333 26.453333v26.496a26.453333 26.453333 0 0 0 26.453333 26.496h160.170667l-40.96 132.437334h93.44a26.453333 26.453333 0 0 0 25.173333-18.133334l38.058667-114.304H580.266667l52.266666 172.16H220.672a26.453333 26.453333 0 0 0-26.453333 26.453334V582.613333a26.453333 26.453333 0 0 0 26.453333 26.453334h582.656a26.453333 26.453333 0 0 0 26.453333-26.453334v-304.554666a26.453333 26.453333 0 0 0-26.453333-26.453334h-54.997333l-52.266667-172.16zM167.722667 768h688.554666a26.453333 26.453333 0 0 0 26.453334-26.453333v-26.496a26.453333 26.453333 0 0 0-26.453334-26.496H167.722667a26.453333 26.453333 0 0 0-26.453334 26.453333V741.546667A26.453333 26.453333 0 0 0 167.68 768zM306.773333 529.664a6.613333 6.613333 0 0 1-6.656-6.613333v-172.16c0-3.669333 2.986667-6.613333 6.656-6.613334h410.453334c3.669333 0 6.656 2.986667 6.656 6.613334V523.093333a6.613333 6.613333 0 0 1-6.656 6.613334H306.773333z"  horiz-adv-x="1024" />

    
    <glyph glyph-name="dropbox-line" unicode="&#59263;" d="M368.896 159.573333l144.725333-92.245333 144.725334 92.202667 79.36-50.56-224.085334-142.762667-224.085333 142.762667 79.36 50.56z m-37.418667 353.28l102.101334 66.261334-103.466667 67.157333L225.28 581.546667l106.24-68.693334z m78.506667-50.773333L512 395.989333l101.973333 66.005334L512 528.256l-102.016-66.218667z m180.522667-116.906667l103.424-66.901333 104.533333 64.085333-106.026667 68.778667-101.930666-65.92zM512 630.016l180.778667 117.248L958.293333 583.253333l-187.392-121.301333 187.434667-121.6-265.642667-162.944L512 294.4l-180.693333-116.906667-265.813334 162.858667 187.562667 121.642667L65.664 583.253333l265.557333 163.968L512 629.973333z m78.378667-50.858667L692.48 512.853333l106.197333 68.693334-104.789333 64.725333-103.509333-67.157333zM433.493333 345.173333l-101.973333 65.962667-106.069333-68.821333 104.576-64.085334 103.466666 66.944z"  horiz-adv-x="1024" />

    
    <glyph glyph-name="github-fill" unicode="&#59264;" d="M512 810.666667C276.266667 810.666667 85.333333 619.733333 85.333333 384a426.410667 426.410667 0 0 1 291.754667-404.821333c21.333333-3.712 29.312 9.088 29.312 20.309333 0 10.112-0.554667 43.690667-0.554667 79.445333-107.178667-19.754667-134.912 26.112-143.445333 50.133334-4.821333 12.288-25.6 50.133333-43.733333 60.288-14.933333 7.978667-36.266667 27.733333-0.554667 28.245333 33.621333 0.554667 57.6-30.933333 65.621333-43.733333 38.4-64.512 99.754667-46.378667 124.245334-35.2 3.754667 27.733333 14.933333 46.378667 27.221333 57.045333-94.933333 10.666667-194.133333 47.488-194.133333 210.688 0 46.421333 16.512 84.778667 43.733333 114.688-4.266667 10.666667-19.2 54.4 4.266667 113.066667 0 0 35.712 11.178667 117.333333-43.776a395.946667 395.946667 0 0 0 106.666667 14.421333c36.266667 0 72.533333-4.778667 106.666666-14.378667 81.578667 55.466667 117.333333 43.690667 117.333334 43.690667 23.466667-58.666667 8.533333-102.4 4.266666-113.066667 27.178667-29.866667 43.733333-67.712 43.733334-114.645333 0-163.754667-99.712-200.021333-194.645334-210.688 15.445333-13.312 28.8-38.912 28.8-78.933333 0-57.045333-0.554667-102.912-0.554666-117.333334 0-11.178667 8.021333-24.490667 29.354666-20.224A427.349333 427.349333 0 0 1 938.666667 384c0 235.733333-190.933333 426.666667-426.666667 426.666667z"  horiz-adv-x="1024" />

    
    <glyph glyph-name="gitlab-fill" unicode="&#59265;" d="M250.368 778.666667L341.333333 469.333333h341.333334l90.965333 309.333334a17.066667 17.066667 0 0 0 32.64 0.426666l149.12-466.090666a21.333333 21.333333 0 0 0-7.381333-23.466667L512-42.666667 75.946667 289.536a21.333333 21.333333 0 0 0-7.338667 23.466667L217.728 779.093333a17.066667 17.066667 0 0 0 32.64-0.384z"  horiz-adv-x="1024" />

    
    <glyph glyph-name="chrome-line" unicode="&#59266;" d="M442.24 49.792l82.346667 142.592a191.957333 191.957333 0 0 0-180.650667 98.773333L204.544 532.48a341.461333 341.461333 0 0 1 237.653333-482.688z m94.933333-6.229333A341.333333 341.333333 0 0 1 836.352 490.666667h-164.693333A191.146667 191.146667 0 0 0 704 384a191.146667 191.146667 0 0 0-27.392-98.901333l-139.434667-241.493334z m66.261334 285.482666l0.938666 1.621334a106.666667 106.666667 0 1 1-185.770666 1.792l1.024-1.792a106.624 106.624 0 0 1 183.808-1.621334z m-345.941334 282.453334l82.304-142.506667A192 192 0 0 0 512 576h282.24A340.992 340.992 0 0 1 512 725.333333a340.48 340.48 0 0 1-254.506667-113.877333zM512-42.666667C276.352-42.666667 85.333333 148.352 85.333333 384S276.352 810.666667 512 810.666667s426.666667-191.018667 426.666667-426.666667-191.018667-426.666667-426.666667-426.666667z"  horiz-adv-x="1024" />

    
    <glyph glyph-name="facebook-circle-line" unicode="&#59267;" d="M554.666667 45.312A341.376 341.376 0 0 1 512 725.333333a341.333333 341.333333 0 0 1-42.666667-680.021333V298.666667H384v85.333333h85.333333v70.570667c0 57.045333 5.973333 77.738667 17.066667 98.602666A116.309333 116.309333 0 0 0 534.869333 601.6c16.298667 8.746667 36.565333 13.994667 71.978667 16.256 14.037333 0.896 32.213333-0.213333 54.528-3.413333v-81.066667H640c-39.125333 0-55.296-1.834667-64.938667-6.997333a31.018667 31.018667 0 0 1-13.397333-13.397334c-5.12-9.642667-6.997333-19.2-6.997333-58.368V384h106.666666l-21.333333-85.333333h-85.333333v-253.354667zM512-42.666667C276.352-42.666667 85.333333 148.352 85.333333 384S276.352 810.666667 512 810.666667s426.666667-191.018667 426.666667-426.666667-191.018667-426.666667-426.666667-426.666667z"  horiz-adv-x="1024" />

    
    <glyph glyph-name="gitlab-line" unicode="&#59268;" d="M242.346667 583.936l-77.653334-252.330667L512 66.474667l347.306667 265.130666-77.653334 252.330667L710.101333 426.666667H313.856L242.389333 583.936zM655.232 512l123.221333 271.104a17.066667 17.066667 0 0 0 31.872-2.048l143.658667-466.986667a21.333333 21.333333 0 0 0-7.424-23.210666L512-40.874667 77.482667 290.858667a21.333333 21.333333 0 0 0-7.424 23.210666L213.717333 781.056a17.066667 17.066667 0 0 0 31.872 2.048L368.810667 512h286.378666z"  horiz-adv-x="1024" />

    
    <glyph glyph-name="firefox-line" unicode="&#59269;" d="M110.592 560.853333c-4.864 53.845333 24.234667 113.962667 57.130667 142.805334 1.066667-19.456 5.248-36.565333 12.586666-51.285334A425.813333 425.813333 0 0 0 512 810.666667c235.648 0 426.666667-191.018667 426.666667-426.666667s-191.018667-426.666667-426.666667-426.666667S72.533333 148.352 72.533333 405.333333c0 89.173333 32.853333 148.309333 38.058667 155.52z m193.834667 50.218667c31.914667 38.4 85.888 43.690667 118.997333 30.762667-32.128-16.64-56.32-49.28-65.706667-74.88 4.48-19.584 20.352-34.517333 40.192-37.717334 56.32-5.546667 67.114667-9.984 68.778667-16.341333 0.085333-1.706667 0.085333-3.370667 0-5.034667-7.210667-32.938667-33.536-41.429333-49.365333-47.957333-42.24-17.408-97.621333-56.021333-110.677334-80.981333-6.997333-13.44-6.144-25.088 1.962667-43.264 4.906667-10.965333 40.32-41.045333 49.621333-46.336 40.789333-23.04 69.888 0.853333 101.248 5.290666a83.2 83.2 0 0 0 79.317334-30.762666c11.648-15.274667-1.109333-29.696-16.085334-24.96-15.530667 4.992-34.389333-7.808-65.706666-25.258667a156.416 156.416 0 0 0-99.584-11.648 184.96 184.96 0 0 0-24.96 6.656h-3.626667c34.005333-75.733333 119.168-104.234667 183.296-104.234667C725.333333 104.405333 853.333333 256 853.333333 384A341.333333 341.333333 0 0 1 266.410667 621.056c12.928-1.877333 25.728-5.248 38.016-9.984z"  horiz-adv-x="1024" />

    
    <glyph glyph-name="ie-fill" unicode="&#59270;" d="M367.445333 37.546667c-117.077333-63.573333-218.154667-76.757333-274.005333-20.906667-57.344 57.173333-26.794667 206.976 56.021333 357.248A990.037333 990.037333 0 0 0 304.085333 583.68c7.978667 7.978667 48 47.957333 50.645334 47.957333 0 0-21.333333-13.354667-23.978667-13.354666-83.2-46.72-156.288-131.413333-172.245333-150.4a384.170667 384.170667 0 0 0 403.968 299.050666c132.053333 59.818667 254.890667 73.642667 306.858666 21.76 48-47.914667 45.312-127.786667 5.333334-223.658666-0.426667-0.896-0.768-1.834667-1.152-2.730667A382.293333 382.293333 0 0 0 917.333333 384c0-16.213333-0.981333-32.128-2.944-47.786667h-34.304a175.104 175.104 0 0 0-6.058666-0.128H370.730667v-7.978666c2.645333-85.205333 77.312-159.744 167.978666-159.744 64 0 125.312 34.602667 151.978667 85.205333h203.946667A384.128 384.128 0 0 0 367.445333 37.546667z m-25.898666 13.696a385.28 385.28 0 0 0-169.472 202.325333c-49.536-97.365333-62.293333-178.773333-20.010667-221.013333 34.688-34.645333 104.021333-26.624 189.354667 18.602666l0.128 0.085334zM860.672 584.874667a349.44 349.44 0 0 0 0.64 1.450666c32 69.205333 34.688 127.744 5.333333 162.389334-37.077333 37.034667-108.373333 32-192.938666-7.168a385.365333 385.365333 0 0 0 186.965333-156.672z m-153.984-147.626667v2.602667c-5.333333 87.893333-74.666667 154.453333-160 154.453333-90.666667 0-167.936-71.893333-173.269333-154.453333v-2.645334h333.269333z"  horiz-adv-x="1024" />

    
    <glyph glyph-name="behance-fill" unicode="&#59271;" d="M317.568 667.733333c27.264 0 52.48-2.133333 75.52-8.448a163.413333 163.413333 0 0 0 58.752-23.210666c16.810667-10.538667 29.397333-25.344 37.76-44.330667 8.405333-18.986667 12.586667-42.24 12.586667-67.541333 0-29.568-6.272-54.869333-20.949334-73.856-12.586667-19.029333-33.578667-35.882667-58.752-48.554667 35.669333-10.581333 62.933333-29.568 79.701334-54.869333 16.810667-25.344 27.306667-57.002667 27.306666-92.885334 0-29.568-6.314667-54.869333-16.810666-75.989333-10.496-21.12-27.264-40.106667-46.165334-52.778667a216.661333 216.661333 0 0 0-67.114666-29.525333c-25.173333-6.357333-50.346667-10.581333-75.52-10.581333H42.666667V667.733333h274.901333z m-16.810667-236.373333c23.082667 0 41.984 6.314667 56.661334 16.853333 14.677333 10.538667 20.992 29.568 20.992 52.778667 0 12.672-2.133333 25.344-6.314667 33.749333-4.181333 8.448-10.496 14.805333-18.858667 21.12-8.405333 4.224-16.810667 8.448-27.306666 10.538667-10.496 2.133333-20.949333 2.133333-33.578667 2.133333H170.666667v-137.216h130.133333z m6.314667-249.088c12.586667 0 25.173333 2.133333 35.669333 4.224a73.386667 73.386667 0 0 1 29.354667 12.672 75.093333 75.093333 0 0 1 20.992 23.210667c4.181333 10.538667 8.405333 23.210667 8.405333 37.973333 0 29.568-8.405333 50.688-25.173333 65.450667-16.810667 12.672-39.893333 18.986667-67.157333 18.986666H170.666667v-162.56h136.405333z m404.992 2.133333c16.768-16.896 41.941333-25.344 75.52-25.344 23.082667 0 44.074667 6.314667 60.842667 16.853334 16.810667 12.672 27.306667 25.344 31.488 38.016h102.826666c-16.810667-50.645333-41.984-86.528-75.52-109.738667-33.621333-21.12-73.472-33.792-121.728-33.792a245.461333 245.461333 0 0 0-90.24 16.896 167.68 167.68 0 0 0-67.157333 46.421333 167.68 167.68 0 0 0-41.941333 69.674667c-10.496 27.434667-14.72 56.96-14.72 90.752 0 31.658667 4.224 61.184 14.72 88.661333a227.84 227.84 0 0 0 44.032 71.765334c18.901333 18.986667 41.984 35.84 67.157333 46.421333a234.24 234.24 0 0 0 88.149333 16.896c35.669333 0 67.157333-6.357333 94.421334-21.12 27.306667-14.762667 48.256-31.658667 65.066666-57.002667a256.426667 256.426667 0 0 0 37.76-80.213333c4.181333-29.525333 6.272-59.093333 4.181334-92.842667H682.666667c0-33.792 12.586667-65.450667 29.397333-82.346666z m132.181333 221.610667c-14.677333 14.762667-37.76 23.210667-65.066666 23.210667a99.84 99.84 0 0 1-46.165334-10.538667c-12.586667-6.357333-20.949333-14.805333-29.354666-23.253333a56.405333 56.405333 0 0 1-14.677334-29.525334c-2.133333-10.581333-4.224-18.986667-4.224-27.434666h188.842667c-4.181333 31.658667-14.677333 52.736-29.354667 67.541333zM659.584 627.626667h235.008v-57.002667H659.626667V627.626667z"  horiz-adv-x="1024" />

    
    <glyph glyph-name="instagram-fill" unicode="&#59272;" d="M512 810.666667c115.925333 0 130.389333-0.426667 175.872-2.56 45.44-2.133333 76.373333-9.258667 103.594667-19.84 28.16-10.837333 51.882667-25.514667 75.605333-49.194667a209.408 209.408 0 0 0 49.194667-75.605333c10.538667-27.178667 17.706667-58.154667 19.84-103.594667 2.005333-45.482667 2.56-59.946667 2.56-175.872 0-115.925333-0.426667-130.389333-2.56-175.872-2.133333-45.44-9.301333-76.373333-19.84-103.594667a208.341333 208.341333 0 0 0-49.194667-75.605333 209.706667 209.706667 0 0 0-75.605333-49.194667c-27.178667-10.538667-58.154667-17.706667-103.594667-19.84-45.482667-2.005333-59.946667-2.56-175.872-2.56-115.925333 0-130.389333 0.426667-175.872 2.56-45.44 2.133333-76.373333 9.301333-103.594667 19.84a208.64 208.64 0 0 0-75.605333 49.194667 209.237333 209.237333 0 0 0-49.194667 75.605333c-10.581333 27.178667-17.706667 58.154667-19.84 103.594667C85.888 253.610667 85.333333 268.074667 85.333333 384c0 115.925333 0.426667 130.389333 2.56 175.872 2.133333 45.482667 9.258667 76.373333 19.84 103.594667a208.213333 208.213333 0 0 0 49.194667 75.605333A208.938667 208.938667 0 0 0 232.533333 788.266667c27.221333 10.581333 58.112 17.706667 103.594667 19.84C381.610667 810.112 396.074667 810.666667 512 810.666667z m0-213.333334a213.333333 213.333333 0 1 1 0-426.666666 213.333333 213.333333 0 0 1 0 426.666666z m277.333333 10.666667a53.333333 53.333333 0 0 1-106.666666 0 53.333333 53.333333 0 0 1 106.666666 0zM512 512a128 128 0 1 0 0-256 128 128 0 0 0 0 256z"  horiz-adv-x="1024" />

    
    <glyph glyph-name="ie-line" unicode="&#59273;" d="M774.784 469.333333A256.085333 256.085333 0 0 1 291.84 469.333333h482.986667zM280.874667 341.333333a256.085333 256.085333 0 0 1 472.746666-87.765333h140.970667A384.128 384.128 0 0 0 367.445333 37.546667c-117.077333-63.616-218.154667-76.8-274.005333-20.949334-57.344 57.173333-26.794667 206.976 56.021333 357.248a1007.957333 1007.957333 0 0 0 106.624 156.373334c15.317333 18.474667 31.36 36.352 48 53.418666-11.733333-2.346667-80.213333-36.309333-145.578666-115.797333a384.170667 384.170667 0 0 0 403.968 299.050667c132.053333 59.818667 254.890667 73.642667 306.858666 21.76 48-47.914667 45.312-127.786667 5.333334-223.658667-0.426667-0.896-0.768-1.834667-1.152-2.730667A382.293333 382.293333 0 0 0 917.333333 384c0-14.421333-0.810667-28.672-2.346666-42.666667H280.874667z m60.672-290.090666a385.28 385.28 0 0 0-169.472 202.325333c-49.536-97.365333-62.293333-178.773333-20.010667-221.013333 34.688-34.645333 104.021333-26.624 189.354667 18.602666l0.128 0.085334zM860.672 584.874667a349.44 349.44 0 0 0 0.64 1.450666c32 69.205333 34.688 127.744 5.333333 162.389334-37.077333 37.034667-108.373333 32-192.938666-7.168a385.365333 385.365333 0 0 0 186.965333-156.672z"  horiz-adv-x="1024" />

    
    <glyph glyph-name="instagram-line" unicode="&#59274;" d="M512 512a128 128 0 1 1 0-256 128 128 0 0 1 0 256z m0 85.333333a213.333333 213.333333 0 1 0 0-426.666666 213.333333 213.333333 0 0 0 0 426.666666z m277.333333 10.666667a53.333333 53.333333 0 0 0-106.666666 0 53.333333 53.333333 0 0 0 106.666666 0zM512 725.333333c-105.557333 0-122.794667-0.298667-171.904-2.474666-33.450667-1.578667-55.893333-6.058667-76.714667-14.165334a123.136 123.136 0 0 1-46.08-29.994666 123.306667 123.306667 0 0 1-30.037333-46.08c-8.106667-20.906667-12.586667-43.306667-14.122667-76.714667C170.922667 508.8 170.666667 492.330667 170.666667 384c0-105.557333 0.298667-122.794667 2.474666-171.904 1.578667-33.408 6.058667-55.893333 14.122667-76.672 7.253333-18.56 15.786667-31.914667 29.952-46.08 14.378667-14.336 27.733333-22.912 46.08-29.994667 21.077333-8.149333 43.52-12.672 76.8-14.208C387.2 42.922667 403.669333 42.666667 512 42.666667c105.557333 0 122.794667 0.298667 171.904 2.474666 33.365333 1.578667 55.850667 6.058667 76.672 14.122667a124.586667 124.586667 0 0 1 46.08 29.952c14.378667 14.378667 22.954667 27.733333 30.037333 46.08 8.106667 21.034667 12.629333 43.52 14.165334 76.8 2.218667 47.104 2.474667 63.573333 2.474666 171.904 0 105.557333-0.298667 122.794667-2.474666 171.904-1.578667 33.365333-6.058667 55.893333-14.165334 76.714667a124.202667 124.202667 0 0 1-29.994666 46.08 123.050667 123.050667 0 0 1-46.08 30.037333c-20.906667 8.106667-43.349333 12.586667-76.714667 14.122667C636.8 725.077333 620.330667 725.333333 512 725.333333z m0 85.333334c115.925333 0 130.389333-0.426667 175.872-2.56 45.44-2.133333 76.373333-9.258667 103.594667-19.84 28.16-10.837333 51.882667-25.514667 75.605333-49.194667a209.408 209.408 0 0 0 49.194667-75.605333c10.538667-27.178667 17.706667-58.154667 19.84-103.594667 2.005333-45.482667 2.56-59.946667 2.56-175.872 0-115.925333-0.426667-130.389333-2.56-175.872-2.133333-45.44-9.301333-76.373333-19.84-103.594667a208.341333 208.341333 0 0 0-49.194667-75.605333 209.706667 209.706667 0 0 0-75.605333-49.194667c-27.178667-10.538667-58.154667-17.706667-103.594667-19.84-45.482667-2.005333-59.946667-2.56-175.872-2.56-115.925333 0-130.389333 0.426667-175.872 2.56-45.44 2.133333-76.373333 9.301333-103.594667 19.84a208.64 208.64 0 0 0-75.605333 49.194667 209.237333 209.237333 0 0 0-49.194667 75.605333c-10.581333 27.178667-17.706667 58.154667-19.84 103.594667C85.888 253.610667 85.333333 268.074667 85.333333 384c0 115.925333 0.426667 130.389333 2.56 175.872 2.133333 45.482667 9.258667 76.373333 19.84 103.594667a208.213333 208.213333 0 0 0 49.194667 75.605333A208.938667 208.938667 0 0 0 232.533333 788.266667c27.221333 10.581333 58.112 17.706667 103.594667 19.84C381.610667 810.112 396.074667 810.666667 512 810.666667z"  horiz-adv-x="1024" />

    
    <glyph glyph-name="kakao-talk-fill" unicode="&#59275;" d="M512 768c247.424 0 448-156.330667 448-349.226667 0-192.853333-200.576-349.184-448-349.184a576 576 0 0 0-73.685333 4.693334l-188.074667-123.008c-21.376-11.306667-28.928-10.069333-20.138667 17.621333l38.058667 156.928c-122.88 62.293333-204.16 170.24-204.16 292.949333C64 611.626667 264.576 768 512 768z m252.032-343.893333l62.72 60.757333a20.138667 20.138667 0 0 1-27.989333 28.928l-82.261334-79.616V499.968a20.138667 20.138667 0 0 1-40.277333 0v-109.098667a20.096 20.096 0 0 1 0-9.472V320a20.138667 20.138667 0 0 1 40.277333 0v58.154667l18.218667 17.621333 60.928-86.741333a20.138667 20.138667 0 1 1 32.981333 23.168l-64.597333 91.946666z m-126.208-82.090667h-62.293333V499.328a20.138667 20.138667 0 0 1-40.234667 0v-177.450667c0-11.093333 8.96-20.138667 20.096-20.138666h82.432a20.138667 20.138667 0 1 1 0 40.277333z m-249.898667 46.592l29.696 72.832 27.221334-72.832H387.925333z m107.648-20.821333l0.085334 0.682666a20.010667 20.010667 0 0 1-5.418667 13.653334l-44.629333 119.466666a29.44 29.44 0 0 1-26.752 20.224 29.696 29.696 0 0 1-27.861334-19.072l-70.869333-173.866666a20.138667 20.138667 0 0 1 37.290667-15.232l14.08 34.688h88.32l12.757333-34.133334a20.138667 20.138667 0 1 1 37.717333 14.08l-14.72 39.509334zM353.834667 499.114667a20.138667 20.138667 0 0 1-20.096 20.138666H195.285333a20.138667 20.138667 0 1 1 0-40.277333h49.493334v-159.402667a20.138667 20.138667 0 0 1 40.277333 0V478.976h48.64a20.138667 20.138667 0 0 1 20.138667 20.138667z"  horiz-adv-x="1024" />

    
    <glyph glyph-name="codepen-fill" unicode="&#59276;" d="M512 460.714667L396.928 384 512 307.285333 627.072 384 512 460.714667z m192-25.429334L819.072 512 554.666667 688.256v-153.429333l149.333333-99.541334z m149.333333-2.986666L780.928 384 853.333333 335.744V432.213333z m-149.333333-99.584L554.666667 233.173333v-153.429333L819.072 256 704 332.714667zM469.333333 534.826667V688.256L204.928 512 320 435.285333 469.333333 534.826667zM204.928 256L469.333333 79.744v153.429333l-149.333333 99.541334L204.928 256z m38.144 128L170.666667 432.256v-96.512L243.072 384zM85.333333 512a42.666667 42.666667 0 0 0 18.986667 35.498667l384 256a42.666667 42.666667 0 0 0 47.36 0l384-256A42.666667 42.666667 0 0 0 938.666667 512v-256a42.666667 42.666667 0 0 0-18.986667-35.498667l-384-256a42.666667 42.666667 0 0 0-47.36 0l-384 256A42.666667 42.666667 0 0 0 85.333333 256V512z"  horiz-adv-x="1024" />

    
    <glyph glyph-name="github-line" unicode="&#59277;" d="M251.008 100.138667c-12.8 8.533333-23.808 19.413333-36.693333 34.816a2146.986667 2146.986667 0 0 0-19.882667 24.704c-19.754667 24.533333-32.213333 35.84-45.098667 40.490666a42.666667 42.666667 0 0 0 28.842667 80.341334c32.085333-11.52 53.802667-31.36 83.072-67.754667-4.010667 4.992 14.506667-18.218667 18.474667-22.997333 8.106667-9.685333 14.08-15.573333 18.773333-18.688 8.704-5.845333 25.045333-8.362667 49.066667-5.973334 0.981333 16.298667 4.010667 32.128 8.618666 46.72C229.546667 242.773333 157.866667 324.437333 157.866667 484.693333c0 52.906667 15.786667 100.522667 45.141333 140.458667-9.301333 38.144-7.893333 84.266667 12.885333 136.192a42.666667 42.666667 0 0 0 26.88 24.832c3.456 1.024 5.418667 1.493333 8.874667 2.005333 34.261333 5.248 82.645333-7.253333 145.706667-46.762666A500.522667 500.522667 0 0 0 512 754.56c38.912 0 77.568-4.437333 114.517333-13.141333 63.018667 39.808 111.488 52.309333 146.005334 46.762666 3.626667-0.554667 6.698667-1.28 9.301333-2.133333a42.666667 42.666667 0 0 0 26.282667-24.746667c20.778667-51.882667 22.186667-98.005333 12.885333-136.106666 29.482667-39.936 45.141333-87.253333 45.141333-140.501334 0-160.298667-71.424-241.706667-198.058666-272.725333 5.333333-17.706667 8.106667-37.504 8.106666-58.88a12820.992 12820.992 0 0 0-0.512-115.882667 42.666667 42.666667 0 0 0-0.810666-83.541333c-48.597333-9.728-84.608 22.698667-84.608 65.066667l0.085333 19.029333 0.213333 30.08c0.213333 30.208 0.298667 57.088 0.298667 85.248 0 29.738667-7.808 49.152-18.133333 58.026667-28.202667 24.32-13.909333 70.613333 23.04 74.752 126.592 14.208 185.045333 63.232 185.045333 198.826666 0 40.746667-13.312 74.410667-38.954667 102.570667a42.666667 42.666667 0 0 0-8.106666 44.586667c7.082667 17.664 10.112 40.832 4.096 68.864l-0.426667-0.128c-20.949333-5.930667-47.36-18.773333-79.274667-40.490667a42.666667 42.666667 0 0 0-35.541333-5.76A410.709333 410.709333 0 0 1 512 669.226667c-37.973333 0-75.605333-5.077333-110.592-14.933334a42.666667 42.666667 0 0 0-35.413333 5.717334c-32.085333 21.632-58.624 34.432-79.701334 40.405333-6.144-27.861333-3.114667-50.944 3.925334-68.565333a42.666667 42.666667 0 0 0-8.064-44.586667C256.682667 559.36 243.2 525.056 243.2 484.693333c0-135.338667 58.496-184.661333 184.405333-198.826666 36.906667-4.138667 51.242667-50.218667 23.210667-74.581334-8.192-7.168-18.304-31.232-18.304-58.197333v-134.4c0-42.069333-35.626667-73.6-83.626667-65.194667a42.666667 42.666667 0 0 0-1.706666 83.712v42.24c-38.826667-2.602667-70.912 3.754667-96.170667 20.693334z"  horiz-adv-x="1024" />

    
    <glyph glyph-name="linkedin-fill" unicode="&#59278;" d="M296.106667 682.666667a85.333333 85.333333 0 1 0-170.666667 0.085333 85.333333 85.333333 0 0 0 170.666667-0.085333zM298.666667 534.186667H128V0h170.666667V534.186667z m269.653333 0H398.506667V0h168.106666v280.32c0 156.16 203.52 170.666667 203.52 0V0H938.666667v338.346667c0 263.253333-301.226667 253.44-372.053334 124.16l1.706667 71.68z"  horiz-adv-x="1024" />

    
    <glyph glyph-name="linkedin-box-line" unicode="&#59279;" d="M170.666667 768h682.666666a42.666667 42.666667 0 0 0 42.666667-42.666667v-682.666666a42.666667 42.666667 0 0 0-42.666667-42.666667H170.666667a42.666667 42.666667 0 0 0-42.666667 42.666667V725.333333a42.666667 42.666667 0 0 0 42.666667 42.666667z m42.666666-85.333333v-597.333334h597.333334V682.666667H213.333333z m106.666667-170.666667a64 64 0 1 0 0 128 64 64 0 0 0 0-128z m-42.666667-42.666667h85.333334v-320h-85.333334V469.333333z m234.666667-18.346666c24.917333 24.106667 54.016 39.68 85.333333 39.68 88.362667 0 149.333333-71.637333 149.333334-160v-181.333334h-85.333334v181.333334a74.666667 74.666667 0 0 1-149.333333 0v-181.333334h-85.333333V469.333333h85.333333v-18.346666z"  horiz-adv-x="1024" />

    
    <glyph glyph-name="linkedin-box-fill" unicode="&#59280;" d="M782.293333 113.536H668.586667v178.218667c0 42.496-0.853333 97.194667-59.306667 97.194666-59.264 0-68.309333-46.250667-68.309333-94.08v-181.333333h-113.749334V480h109.226667v-49.92h1.493333c15.274667 28.757333 52.394667 59.178667 107.861334 59.178667 115.2 0 136.533333-75.861333 136.533333-174.549334v-201.173333zM298.794667 530.133333a65.962667 65.962667 0 0 0-66.048 66.090667 66.048 66.048 0 1 0 66.005333-66.090667z m57.002666-416.597333H241.749333V480H355.84v-366.464zM839.253333 768H184.704C153.301333 768 128 743.253333 128 712.661333v-657.322666C128 24.746667 153.344 0 184.661333 0h654.421334C870.4 0 896 24.746667 896 55.338667V712.661333C896 743.253333 870.4 768 839.082667 768h0.128z"  horiz-adv-x="1024" />

    
    <glyph glyph-name="linkedin-line" unicode="&#59281;" d="M512 488.533333C551.125333 528.512 602.069333 554.666667 661.333333 554.666667a234.666667 234.666667 0 0 0 234.666667-234.666667V0h-85.333333v320a149.333333 149.333333 0 0 1-298.666667 0V0h-85.333333V533.333333h85.333333v-44.8zM213.333333 618.666667a64 64 0 1 0 0 128 64 64 0 0 0 0-128z m-42.666666-85.333334h85.333333V0H170.666667V533.333333z"  horiz-adv-x="1024" />

    
    <glyph glyph-name="line-fill" unicode="&#59282;" d="M796.288 433.493333a22.442667 22.442667 0 0 0-22.442667-22.4h-62.378666v-40.021333h62.378666a22.4 22.4 0 1 0 0-44.757333H689.066667a22.442667 22.442667 0 0 0-22.272 22.357333V518.314667c0 12.245333 10.026667 22.4 22.4 22.4h84.821333a22.4 22.4 0 0 0-0.128-44.8h-62.378667v-40.021334h62.378667c12.416 0 22.442667-10.112 22.442667-22.4z m-174.848-106.026666a22.954667 22.954667 0 0 0-7.082667-1.066667 21.973333 21.973333 0 0 0-18.133333 8.874667l-86.869333 117.930666v-104.533333a22.4 22.4 0 0 0-44.672 0V518.314667a22.272 22.272 0 0 0 22.186666 22.314666c6.912 0 13.312-3.669333 17.578667-9.002666l87.552-118.4V518.314667c0 12.245333 10.026667 22.4 22.4 22.4 12.245333 0 22.4-10.154667 22.4-22.4v-169.642667a22.357333 22.357333 0 0 0-15.36-21.205333z m-211.2-1.152a22.442667 22.442667 0 0 0-22.314667 22.357333V518.314667c0 12.245333 10.069333 22.4 22.4 22.4 12.330667 0 22.357333-10.154667 22.357334-22.4v-169.642667a22.485333 22.485333 0 0 0-22.442667-22.357333z m-65.28 0H260.181333a22.528 22.528 0 0 0-22.4 22.357333V518.314667a22.485333 22.485333 0 0 0 44.8 0v-147.2h62.464a22.4 22.4 0 0 0 0-44.8zM512 786.261333c-235.221333 0-426.666667-155.434667-426.666667-346.368 0-171.093333 151.808-314.410667 356.821334-341.632 13.866667-2.901333 32.810667-9.173333 37.589333-20.992 4.266667-10.666667 2.816-27.221333 1.365333-38.4l-5.845333-36.266666c-1.578667-10.666667-8.533333-42.154667 37.290667-22.912 45.909333 19.157333 245.930667 144.981333 335.530666 247.978666C909.354667 294.869333 938.666667 363.648 938.666667 439.893333c0 190.933333-191.488 346.368-426.666667 346.368z"  horiz-adv-x="1024" />

    
    <glyph glyph-name="invision-line" unicode="&#59283;" d="M170.666667 768h682.666666a42.666667 42.666667 0 0 0 42.666667-42.666667v-682.666666a42.666667 42.666667 0 0 0-42.666667-42.666667H170.666667a42.666667 42.666667 0 0 0-42.666667 42.666667V725.333333a42.666667 42.666667 0 0 0 42.666667 42.666667z m42.666666-85.333333v-597.333334h597.333334V682.666667H213.333333z m84.821334-386.773334l32.853333 139.562667H280.064l15.445333 59.306667h122.368l-48.298666-199.253334a131.029333 131.029333 0 0 1-4.522667-30.72c0-12.714667 6.016-16.469333 15.445333-18.645333 5.76-1.365333 51.541333-0.426667 76.416 57.173333l31.744 132.138667h-51.541333l15.488 59.306667h110.08l-14.122667-67.328c19.285333 37.546667 57.941333 73.173333 95.914667 73.173333 40.533333 0 74.069333-30.037333 74.069333-87.68 0-14.72-1.962667-30.762667-7.082666-48.853333l-20.608-77.013334a92.117333 92.117333 0 0 1-3.242667-20.778666c0-13.397333 5.162667-20.053333 14.805333-20.053334 9.685333 0 21.930667 7.338667 36.096 48.213334l28.330667-11.392c-16.768-60.970667-47.018667-86.4-85.034667-86.4-44.416 0-65.664 27.434667-65.664 64.981333 0 10.666667 1.28 22.101333 4.522667 33.493333l21.248 79.061334a83.626667 83.626667 0 0 1 3.2 24.106666c0 25.429333-14.805333 40.874667-38.613333 40.874667-30.293333 0-50.261333-22.613333-60.544-66.133333l-41.216-172.032h-72.106667l12.928 54.058666c-21.205333-36.266667-50.645333-58.666667-86.954667-58.666666-43.776 0-64.384 26.24-64.384 65.792 0 10.026667 1.28 22.314667 3.84 33.706666z m69.845333 232.106667a48 48 0 1 0 0 96 48 48 0 0 0 0-96z"  horiz-adv-x="1024" />

    
    <glyph glyph-name="mastercard-line" unicode="&#59284;" d="M512 115.456a311.466667 311.466667 0 1 0 0 537.088 311.466667 311.466667 0 1 0 0-537.088z m72.618667 59.050667a226.133333 226.133333 0 1 1 0 418.986666A310.314667 310.314667 0 0 0 665.6 384c0-80.64-30.677333-154.197333-80.981333-209.493333z m-145.237334 418.986666a226.133333 226.133333 0 1 1 0-418.986666A310.314667 310.314667 0 0 0 358.4 384c0 80.64 30.677333 154.197333 80.981333 209.493333zM512 545.92A225.450667 225.450667 0 0 1 443.733333 384c0-63.488 26.154667-120.832 68.266667-161.92A225.450667 225.450667 0 0 1 580.266667 384 225.450667 225.450667 0 0 1 512 545.92z"  horiz-adv-x="1024" />

    
    <glyph glyph-name="line-line" unicode="&#59285;" d="M938.666667 439.893333c0-76.245333-29.312-145.066667-90.581334-212.224-89.6-102.997333-289.621333-228.821333-335.530666-247.978666-45.824-19.242667-38.869333 12.245333-37.290667 22.912l5.845333 36.266666c1.450667 11.178667 2.901333 27.733333-1.365333 38.4-4.778667 11.818667-23.722667 18.090667-37.589333 20.992C237.141333 125.482667 85.333333 268.8 85.333333 439.893333c0 190.933333 191.445333 346.368 426.666667 346.368 235.178667 0 426.666667-155.434667 426.666667-346.368z m-153.6-154.666666c47.488 52.053333 68.266667 100.736 68.266666 154.666666 0 139.434667-149.76 261.034667-341.333333 261.034667s-341.333333-121.6-341.333333-261.034667c0-123.946667 116.394667-234.965333 282.709333-257.024l6.272-1.109333c45.994667-9.642667 80.384-26.197333 99.370667-72.874667l1.536-4.096c77.056 50.176 178.090667 127.146667 224.469333 180.437334z m-11.178667 170.666666a22.442667 22.442667 0 0 0 0-44.8h-62.421333v-40.021333h62.378666a22.4 22.4 0 1 0 0-44.757333H689.066667a22.442667 22.442667 0 0 0-22.272 22.357333V518.314667c0 12.245333 10.026667 22.4 22.4 22.4h84.821333a22.4 22.4 0 0 0-0.128-44.8h-62.378667v-40.021334h62.378667z m-137.088-107.221333a22.357333 22.357333 0 0 0-22.442667-22.272 21.973333 21.973333 0 0 0-18.133333 8.874667l-86.869333 117.930666v-104.533333a22.4 22.4 0 0 0-44.672 0V518.314667a22.272 22.272 0 0 0 22.186666 22.314666c6.912 0 13.312-3.669333 17.578667-9.002666l87.552-118.4V518.314667c0 12.245333 10.026667 22.4 22.4 22.4 12.245333 0 22.4-10.154667 22.4-22.4v-169.642667z m-204.117333 0a22.485333 22.485333 0 0 0-22.442667-22.357333 22.442667 22.442667 0 0 0-22.314667 22.357333V518.314667c0 12.245333 10.069333 22.4 22.4 22.4 12.330667 0 22.357333-10.154667 22.357334-22.4v-169.642667z m-87.68-22.357333H260.138667a22.528 22.528 0 0 0-22.4 22.357333V518.314667a22.485333 22.485333 0 0 0 44.8 0v-147.2h62.464a22.4 22.4 0 0 0 0-44.8z"  horiz-adv-x="1024" />

    
    <glyph glyph-name="google-line" unicode="&#59286;" d="M512 426.666667h364.074667c1.877333-16.426667 2.858667-33.28 2.858666-50.517334 0-116.650667-41.813333-214.869333-114.261333-281.6-63.36-58.496-150.101333-92.8-253.525333-92.8A382.976 382.976 0 0 0 128 384.853333 382.976 382.976 0 0 0 511.146667 768c103.253333 0 189.994667-37.973333 256.341333-99.797333L705.109333 605.866667C655.701333 653.610667 588.928 682.666667 512 682.666667a298.666667 298.666667 0 1 1 0-597.333334c150.442667 0 262.144 111.274667 280.618667 256H512v85.333334z"  horiz-adv-x="1024" />

    
    <glyph glyph-name="medium-fill" unicode="&#59287;" d="M170.666667 768h682.666666a42.666667 42.666667 0 0 0 42.666667-42.666667v-682.666666a42.666667 42.666667 0 0 0-42.666667-42.666667H170.666667a42.666667 42.666667 0 0 0-42.666667 42.666667V725.333333a42.666667 42.666667 0 0 0 42.666667 42.666667z m567.466666-552.106667c-4.266667 2.133333-6.4 8.533333-6.4 12.842667V554.410667c0 4.266667 2.133333 10.666667 6.4 14.976l40.746667 47.146666V618.666667H633.173333l-109.226666-276.394667L399.616 618.666667H249.685333v-2.133334l38.528-53.589333c8.576-8.533333 10.709333-21.418667 10.709334-32.128v-235.648c2.133333-12.885333 0-27.861333-6.4-40.704L234.666667 175.189333v-2.133333h154.282666v2.133333L331.093333 252.288c-6.4 12.885333-8.576 25.728-6.4 40.704V507.306667c2.133333-4.266667 4.266667-4.266667 6.4-12.842667l145.664-325.674667h2.133334L620.373333 522.24c-2.133333-12.8-2.133333-27.818667-2.133333-38.570667v-252.8c0-6.4-2.133333-10.666667-6.4-14.976l-42.88-40.704v-2.133333h209.962667v2.133333l-40.704 40.704z"  horiz-adv-x="1024" />

    
    <glyph glyph-name="invision-fill" unicode="&#59288;" d="M170.666667 768h682.666666a42.666667 42.666667 0 0 0 42.666667-42.666667v-682.666666a42.666667 42.666667 0 0 0-42.666667-42.666667H170.666667a42.666667 42.666667 0 0 0-42.666667 42.666667V725.333333a42.666667 42.666667 0 0 0 42.666667 42.666667z m127.488-472.106667a160.853333 160.853333 0 0 1-3.84-33.706666c0-39.552 20.565333-65.792 64.341333-65.792 36.309333 0 65.749333 22.442667 86.954667 58.666666l-12.928-54.058666h72.106666l41.216 171.989333c10.282667 43.52 30.293333 66.133333 60.544 66.133333 23.808 0 38.613333-15.36 38.613334-40.832 0-7.381333-0.64-15.402667-3.2-24.106666l-21.248-79.061334a123.306667 123.306667 0 0 1-4.522667-33.493333c0-37.546667 21.248-64.981333 65.706667-64.981333 37.973333 0 68.266667 25.429333 84.992 86.4l-28.330667 11.392c-14.165333-40.874667-26.453333-48.213333-36.096-48.213334-9.642667 0-14.805333 6.656-14.805333 20.053334 0 6.016 1.28 12.714667 3.242666 20.778666l20.608 77.013334c5.12 18.090667 7.082667 34.133333 7.082667 48.853333 0 57.6-33.493333 87.68-74.069333 87.68-37.973333 0-76.629333-35.626667-95.914667-73.173333l14.122667 67.370666h-110.08l-15.488-59.306666h51.541333l-31.744-132.181334c-24.874667-57.6-70.656-58.538667-76.373333-57.173333-9.472 2.176-15.488 5.930667-15.488 18.688 0 7.338667 1.28 17.92 4.522666 30.634667l48.298667 199.338666H295.552l-15.445333-59.306666h50.858666l-32.853333-139.605334z m69.845333 232.106667a48 48 0 1 1 0 96 48 48 0 0 1 0-96z"  horiz-adv-x="1024" />

    
    <glyph glyph-name="messenger-line" unicode="&#59289;" d="M331.264 75.733333c25.173333 11.093333 53.333333 13.184 79.701333 5.930667 32.853333-8.96 66.773333-13.482667 101.034667-13.397333 195.626667 0 341.333333 140.245333 341.333333 328.533333S707.626667 725.333333 512 725.333333s-341.333333-140.245333-341.333333-328.533333c0-96.853333 38.229333-182.272 105.216-242.176a119.466667 119.466667 0 0 0 40.192-85.589333l15.189333 6.698666zM512 810.666667c240.384 0 426.666667-176.085333 426.666667-413.866667 0-237.781333-186.282667-413.866667-426.666667-413.866667a464.810667 464.810667 0 0 0-123.52 16.384 34.133333 34.133333 0 0 1-22.784-1.664l-84.650667-37.376a34.133333 34.133333 0 0 0-47.914666 30.165334l-2.346667 75.946666a34.005333 34.005333 0 0 1-11.434667 24.32C136.32 164.906667 85.333333 272.341333 85.333333 396.8 85.333333 634.581333 271.658667 810.666667 512 810.666667zM255.786667 275.754667l125.312 198.826666a64 64 0 0 0 92.586666 17.066667l99.669334-74.666667a25.6 25.6 0 0 1 30.848 0l134.613333 102.229334c17.962667 13.610667 41.429333-7.893333 29.397333-27.008l-125.312-198.826667a64 64 0 0 0-92.586666-17.066667l-99.669334 74.666667a25.6 25.6 0 0 1-30.848 0l-134.613333-102.186667c-17.962667-13.610667-41.429333 7.893333-29.397333 27.008z"  horiz-adv-x="1024" />

    
    <glyph glyph-name="messenger-fill" unicode="&#59290;" d="M512 810.666667c240.384 0 426.666667-176.085333 426.666667-413.866667 0-237.781333-186.282667-413.866667-426.666667-413.866667a464.810667 464.810667 0 0 0-123.52 16.384 34.133333 34.133333 0 0 1-22.784-1.664l-84.650667-37.376a34.133333 34.133333 0 0 0-47.914666 30.165334l-2.346667 75.946666a34.005333 34.005333 0 0 1-11.434667 24.32C136.32 164.906667 85.333333 272.341333 85.333333 396.8 85.333333 634.581333 271.658667 810.666667 512 810.666667zM255.786667 275.754667c-12.032-19.072 11.434667-40.576 29.397333-26.922667l134.613333 102.144a25.6 25.6 0 0 0 30.848 0l99.712-74.666667a64 64 0 0 1 92.544 17.066667l125.312 198.826667c12.032 19.114667-11.434667 40.618667-29.397333 27.008l-134.613333-102.229334a25.6 25.6 0 0 0-30.848 0l-99.712 74.666667a64 64 0 0 1-92.544-17.066667l-125.312-198.826666z"  horiz-adv-x="1024" />

    
    <glyph glyph-name="evernote-fill" unicode="&#59291;" d="M368.213333 565.162667c-9.216-8.576-23.296-9.258667-31.701333-9.258667h-90.026667c-26.026667 0-41.557333 0-52.053333-1.408-5.717333-0.725333-12.714667-3.584-16.256-4.992-1.408-0.682667-1.408 0-0.725333 0.682667l205.482666 210.773333c0.725333 0.725333 1.408 0.725333 0.725334-0.725333a73.984 73.984 0 0 1-4.949334-16.298667c-1.408-10.624-1.408-26.24-1.408-52.48v-94.378667c0-8.533333-0.725333-22.741333-9.130666-31.914666z m199.765334-605.184c-23.893333 15.616-36.565333 36.181333-41.514667 48.938666a104.234667 104.234667 0 0 0-7.722667 39.04 107.221333 107.221333 0 0 0 106.965334 107.093334c17.578667 0 31.658667-14.165333 31.658666-31.914667a31.36 31.36 0 0 0-16.213333-27.648 40.362667 40.362667 0 0 0-11.946667-4.266667c-3.498667-0.725333-16.896-2.133333-23.168-7.808a33.109333 33.109333 0 0 1-12.714666-24.832 39.253333 39.253333 0 0 1 11.264-27.690666c12.672-12.757333 29.568-19.84 47.872-19.84a86.869333 86.869333 0 0 1 86.528 87.253333c0 43.264-28.842667 81.621333-66.858667 98.602667-5.632 2.858667-14.762667 4.992-23.210667 7.125333a286.677333 286.677333 0 0 1-21.12 3.541333c-29.568 3.584-103.424 26.965333-108.373333 92.928 0 0-21.76-99.328-65.450667-126.293333-4.181333-2.133333-9.813333-4.266667-16.170666-5.674667-6.314667-1.408-13.312-2.133333-15.488-2.133333-71.04-4.266667-146.346667 18.474667-198.4 72.362667 0 0-35.2 29.098667-53.461334 110.677333-4.224 19.882667-12.672 55.381333-17.578666 88.746667-2.133333 11.989333-2.858667 21.248-3.541334 29.781333 0 34.730667 21.12 58.154667 47.829334 61.653333h143.573333c24.576 0 38.698667 6.4 47.829333 14.933334 11.946667 11.349333 14.805333 27.690667 14.805334 46.848V741.077333c3.413333 26.24 26.752 48.256 61.184 48.256h16.896c7.04 0 15.488-0.725333 23.210666-1.408 5.632-0.725333 10.538667-2.133333 18.986667-4.266666 42.922667-10.666667 52.053333-54.613333 52.053333-54.613334l121.770667-21.333333c38.698667-7.082667 134.4-13.482667 152.661333-110.677333 42.922667-231.253333 16.896-455.466667 14.805334-455.466667-30.293333-218.496-210.389333-207.829333-210.389334-207.829333a146.176 146.176 0 0 0-86.570666 26.24z m111.872 439.850666c-1.408-3.584-2.816-7.808-2.133334-9.941333 0.768-2.133333 2.176-2.816 3.584-3.541333 8.448-4.266667 22.485333-6.4 42.922667-8.533334 20.394667-2.133333 34.474667-3.541333 43.605333-2.133333 1.408 0 2.858667 0.725333 4.266667 2.858667s0.682667 6.4 0.682667 9.941333c-2.133333 19.157333-19.712 33.322667-42.922667 36.181333-23.253333 2.133333-42.922667-7.125333-50.005333-24.832z"  horiz-adv-x="1024" />

    
    <glyph glyph-name="mastodon-fill" unicode="&#59292;" d="M907.008 299.093333c-11.690667-60.16-104.789333-126.08-211.712-138.837333-55.722667-6.656-110.634667-12.8-169.173333-10.069333-95.701333 4.394667-171.264 22.826667-171.264 22.826666 0-9.301333 0.597333-18.176 1.706666-26.453333 12.458667-94.506667 93.696-100.138667 170.666667-102.826667 77.653333-2.645333 146.773333 19.2 146.773333 19.2l3.242667-70.229333s-54.357333-29.184-151.125333-34.56c-53.333333-2.901333-119.594667 1.365333-196.778667 21.76-167.381333 44.330667-196.181333 222.72-200.576 403.797333-1.322667 53.76-0.512 104.405333-0.512 146.773334 0 185.173333 121.301333 239.402667 121.301333 239.402666 61.141333 28.074667 166.058667 39.893333 275.2 40.789334h2.645334c109.098667-0.853333 214.101333-12.714667 275.242666-40.789334 0 0 121.301333-54.272 121.301334-239.36 0 0 1.536-136.576-16.938667-231.424z m-126.122667 217.045334c0 45.824-11.648 82.218667-35.072 109.141333-24.192 26.922667-55.808 40.746667-95.104 40.746667-45.44 0-79.829333-17.493333-102.613333-52.394667l-22.101333-37.12-22.144 37.12C481.109333 648.533333 446.72 666.026667 401.28 666.026667c-39.296 0-70.954667-13.824-95.104-40.746667-23.424-26.922667-35.072-63.317333-35.072-109.141333v-224.128h88.789333V509.568c0 45.866667 19.285333 69.12 57.898667 69.12 42.666667 0 64.042667-27.605333 64.042667-82.218667v-119.04h88.32v119.04c0 54.613333 21.333333 82.218667 64 82.218667 38.613333 0 57.941333-23.253333 57.941333-69.12v-217.6h88.746667V516.181333z"  horiz-adv-x="1024" />

    
    <glyph glyph-name="mini-program-fill" unicode="&#59293;" d="M675.84 354.517333l-2.858667-0.853333a64.938667 64.938667 0 0 0-17.664-2.645333c-26.026667 0-40.704 17.578667-32.853333 39.296 5.802667 15.872 20.949333 29.269333 39.466667 35.456 28.672 10.453333 48.725333 34.304 48.725333 62.08 0 37.418667-36.394667 67.712-81.28 67.712s-81.237333-30.293333-81.237333-67.712v-207.701334c0-49.92-28.970667-93.738667-72.277334-118.528a163.370667 163.370667 0 0 0-81.237333-21.418666c-84.650667 0-153.514667 62.762667-153.514667 139.946666 0 24.576 6.997333 47.658667 19.242667 67.712 18.944 31.146667 50.517333 54.912 88.32 65.749334a66.133333 66.133333 0 0 0 19.626667 3.114666c26.112 0 40.874667-17.664 32.981333-39.424-5.376-14.805333-19.882667-27.52-36.736-34.261333a92.245333 92.245333 0 0 1-5.930667-2.218667c-26.794667-11.093333-45.269333-34.048-45.269333-60.672 0-37.418667 36.394667-67.712 81.28-67.712s81.237333 30.293333 81.237333 67.712V487.850667c0 49.92 28.970667 93.738667 72.277334 118.528a163.370667 163.370667 0 0 0 81.237333 21.418666c84.650667 0 153.514667-62.762667 153.514667-139.946666 0-24.576-6.997333-47.658667-19.242667-67.712-18.858667-30.976-50.261333-54.698667-87.808-65.621334zM85.333333 384c0-235.648 191.018667-426.666667 426.666667-426.666667s426.666667 191.018667 426.666667 426.666667S747.648 810.666667 512 810.666667 85.333333 619.648 85.333333 384z"  horiz-adv-x="1024" />

    
    <glyph glyph-name="firefox-fill" unicode="&#59294;" d="M938.666667 384c0-235.648-191.018667-426.666667-426.666667-426.666667S85.333333 148.352 85.333333 384c0 85.162667 24.96 164.48 67.925334 231.082667 0.554667 47.018667 24.618667 102.741333 57.130666 131.242666 1.962667-36.394667 14.933333-64.512 38.826667-84.309333a174.72 174.72 0 0 0 97.877333-8.277333c31.914667 38.4 85.888 43.690667 118.997334 30.762666-32.128-16.64-56.32-49.28-65.706667-74.88 4.48-19.584 20.352-34.517333 40.192-37.717333 56.32-5.546667 67.114667-9.984 68.778667-16.341333 0.085333-1.706667 0.085333-3.370667 0-5.034667-7.210667-32.938667-33.450667-41.685333-49.365334-47.957333-23.466667-9.216-39.808-18.645333-49.066666-28.288 5.376-25.301333-10.282667-53.802667-10.282667-53.802667-6.997333 8.106667-18.56 13.781333-34.688 16.896a38.272 38.272 0 0 1-16.64-15.786667c-6.144-13.909333-6.144-25.088 1.962667-43.264 4.906667-10.965333 40.32-41.045333 49.621333-46.336 40.789333-23.04 69.888 0.853333 101.248 5.290667a83.2 83.2 0 0 0 79.317333-30.762667c11.648-15.274667-1.109333-29.696-16.085333-24.96-15.530667 4.992-34.389333-7.808-65.706667-25.258666a156.416 156.416 0 0 0-99.584-11.648 184.96 184.96 0 0 0-24.96 6.656h-3.626666a199.68 199.68 0 0 1 58.794666-55.466667c15.488-7.850667 32-13.44 49.109334-16.64a198.016 198.016 0 0 1 242.389333 194.133333c0.170667 28.586667-1.408 93.184-45.226667 129.237334a233.813333 233.813333 0 0 0-77.909333 103.722666c-24.832 66.944-4.437333 132.352 18.986667 177.706667 2.133333 4.096 16.469333 34.901333 40.021333 60.629333-2.602667-29.184 45.312-78.848 57.216-85.162666C848.213333 687.189333 938.666667 546.133333 938.666667 384z"  horiz-adv-x="1024" />

    
    <glyph glyph-name="medium-line" unicode="&#59295;" d="M170.666667 768h682.666666a42.666667 42.666667 0 0 0 42.666667-42.666667v-682.666666a42.666667 42.666667 0 0 0-42.666667-42.666667H170.666667a42.666667 42.666667 0 0 0-42.666667 42.666667V725.333333a42.666667 42.666667 0 0 0 42.666667 42.666667z m42.666666-85.333333v-597.333334h597.333334V682.666667H213.333333z m524.8-466.773334l40.746667-40.704v-2.133333h-209.962667v2.133333l42.837334 40.704c4.266667 4.266667 6.4 8.533333 6.4 14.976V483.669333c0 10.752 0 25.728 2.176 38.570667l-141.397334-353.493333h-2.133333L331.093333 494.421333c-2.133333 8.533333-4.266667 8.533333-6.4 12.8v-214.186666c-2.176-15.018667 0-27.861333 6.4-40.746667l57.856-77.098667v-2.133333H234.666667v2.133333l57.856 79.274667c6.4 12.8 8.533333 27.818667 6.4 40.704V530.773333c0 10.709333-2.133333 23.594667-10.666667 32.128L249.642667 616.533333V618.666667h149.973333l124.245333-276.394667L633.173333 618.666667h145.706667v-2.133334l-40.704-47.146666c-4.266667-4.266667-6.4-10.709333-6.4-14.976v-325.674667c0-4.266667 2.133333-10.709333 6.4-12.842667z"  horiz-adv-x="1024" />

    
    <glyph glyph-name="mastodon-line" unicode="&#59296;" d="M128.768 383.658667c-1.365333 53.76-0.512 104.448-0.512 146.858666 0 185.088 121.301333 239.36 121.301333 239.36 61.141333 28.074667 166.058667 39.893333 275.2 40.789334h2.645334c109.098667-0.853333 214.101333-12.714667 275.242666-40.789334 0 0 121.301333-54.272 121.301334-239.36 0 0 1.536-136.576-16.896-231.424-11.733333-60.16-104.832-126.08-211.754667-138.837333-55.722667-6.656-110.634667-12.8-169.173333-10.069333-95.701333 4.394667-171.264 22.826667-171.264 22.826666 0-9.301333 0.597333-18.176 1.706666-26.453333 3.584-27.008 12.757333-46.72 25.813334-61.226667 32.682667-36.266667 89.856-39.68 144.853333-41.557333 77.653333-2.688 146.773333 19.157333 146.773333 19.157333l3.242667-70.229333s-54.357333-29.184-151.125333-34.56c-53.333333-2.901333-119.594667 1.365333-196.778667 21.76-65.365333 17.322667-109.568 55.04-139.52 105.429333-46.634667 78.634667-58.368 187.989333-61.056 298.325334z m140.8-210.645334v108.714667l105.557333-25.813333a876.373333 876.373333 0 0 1 55.594667-10.453334c32.128-4.949333 65.621333-8.533333 99.328-10.026666 43.477333-2.005333 81.109333 0.725333 155.136 9.557333 70.954667 8.490667 134.314667 51.029333 138.069333 70.4 3.498667 18.005333 6.442667 39.338667 8.789334 63.232a1433.6 1433.6 0 0 1 5.845333 95.786667c0.64 21.76 0.853333 40.32 0.725333 53.589333v2.517333c0 61.013333-15.744 104.021333-41.088 134.741334a128.341333 128.341333 0 0 1-24.917333 23.381333c-3.84 2.730667-5.76 3.797333-5.546667 3.712-43.221333 19.84-131.968 32.085333-239.658666 32.981333h-1.962667c-108.373333-0.853333-197.12-13.141333-241.066667-33.365333 0.981333 0.426667-0.896-0.597333-4.778666-3.328a128.341333 128.341333 0 0 1-24.917334-23.381333c-25.344-30.72-41.088-73.770667-41.088-134.741334 0-9.898667 0-16.938667-0.128-37.333333a3305.941333 3305.941333 0 0 1 0.597334-107.434667c2.304-93.738667 11.264-163.626667 29.866666-215.082666 9.045333-25.045333 20.138667-45.653333 33.28-61.866667a243.2 243.2 0 0 0-7.68 64.213333zM344.917333 624.213333a48.768 48.768 0 1 0 0-97.578666 48.768 48.768 0 0 0 0 97.578666z"  horiz-adv-x="1024" />

    
    <glyph glyph-name="mastercard-fill" unicode="&#59297;" d="M512 612.096a289.536 289.536 0 0 0 110.762667-228.010667A289.536 289.536 0 0 0 512 156.16a289.536 289.536 0 0 0-110.762667 227.968A289.536 289.536 0 0 0 512 612.096z m-37.12 24.832A332.074667 332.074667 0 0 1 358.4 384a332.074667 332.074667 0 0 1 116.394667-252.842667 290.048 290.048 0 1 0 0.128 505.770667z m74.325333-505.770667A332.074667 332.074667 0 0 1 665.6 384a332.074667 332.074667 0 0 1-116.48 252.928 290.048 290.048 0 1 0 0.128-505.770667z"  horiz-adv-x="1024" />

    
    <glyph glyph-name="netflix-line" unicode="&#59298;" d="M681.984 161.792L682.666667 810.666667h85.333333v-853.333334a323.968 323.968 0 0 1-86.186667 21.333334L341.333333 627.114667V-21.333333a312.96 312.96 0 0 1-85.333333-21.333334V810.666667h85.333333l340.650667-648.874667z"  horiz-adv-x="1024" />

    
    <glyph glyph-name="opera-line" unicode="&#59299;" d="M630.016 63.573333a341.461333 341.461333 0 0 1 0 640.853334C712.96 640.981333 768 514.773333 768 384s-54.997333-257.024-137.984-320.426667zM393.984 704.426667a341.461333 341.461333 0 0 1 0-640.853334C311.04 127.018667 256 253.226667 256 384s54.997333 257.024 137.984 320.426667zM512-42.666667C276.352-42.666667 85.333333 148.352 85.333333 384S276.352 810.666667 512 810.666667s426.666667-191.018667 426.666667-426.666667-191.018667-426.666667-426.666667-426.666667z m0 149.333334c85.333333 0 170.666667 129.408 170.666667 277.333333s-85.333333 277.333333-170.666667 277.333333S341.333333 531.925333 341.333333 384s85.333333-277.333333 170.666667-277.333333z"  horiz-adv-x="1024" />

    
    <glyph glyph-name="mini-program-line" unicode="&#59300;" d="M512-42.666667C276.352-42.666667 85.333333 148.352 85.333333 384S276.352 810.666667 512 810.666667s426.666667-191.018667 426.666667-426.666667-191.018667-426.666667-426.666667-426.666667z m0 85.333334a341.333333 341.333333 0 1 1 0 682.666666 341.333333 341.333333 0 0 1 0-682.666666z m42.666667 256a149.333333 149.333333 0 1 0-212.352 135.424 42.666667 42.666667 0 1 0 36.053333-77.354667A64 64 0 1 1 469.333333 298.666667v170.666666a149.333333 149.333333 0 1 0 212.352-135.424 42.666667 42.666667 0 0 0-36.053333 77.354667A64 64 0 1 1 554.666667 469.333333v-170.666666z"  horiz-adv-x="1024" />

    
    <glyph glyph-name="opera-fill" unicode="&#59301;" d="M371.626667 624.426667c-47.274667-55.68-77.781333-138.069333-79.914667-230.4v-20.053334c2.176-92.373333 32.682667-174.634667 79.872-230.4 61.184-79.445333 152.149333-129.877333 253.866667-129.877333a307.541333 307.541333 0 0 1 170.88 52.309333 424.106667 424.106667 0 0 0-304.597334-108.16A426.581333 426.581333 0 0 0 85.333333 384C85.333333 619.690667 276.394667 810.666667 512 810.666667h1.578667a425.386667 425.386667 0 0 0 282.794666-108.629334 308.864 308.864 0 0 1-171.008 52.309334c-101.632 0-192.597333-50.474667-253.866666-129.92h0.085333zM938.666667 384a425.344 425.344 0 0 0-142.293334-318.037333c-109.44-53.333333-211.413333-16.042667-245.205333 7.253333 107.52 23.637333 188.714667 153.6 188.714667 310.784 0 157.226667-81.194667 287.146667-188.714667 310.741333 33.749333 23.253333 135.765333 60.586667 245.205333 7.296A425.258667 425.258667 0 0 0 938.666667 384z"  horiz-adv-x="1024" />

    
    <glyph glyph-name="netflix-fill" unicode="&#59302;" d="M481.706667 733.269333l86.186666-243.498666 16.853334-47.616 0.298666 205.226666 0.426667 205.568h182.186667L768 389.504c0.128-255.146667-0.128-464.64-0.64-465.066667-0.512-0.384-8.917333 0-18.602667 1.152a2078.805333 2078.805333 0 0 1-142.506666 12.032 621.653333 621.653333 0 0 0-27.136 1.621334c-0.128 0.170667-11.648 32.512-33.109334 93.184v0.170666l-91.477333 258.602667-14.506667 40.704-0.341333-195.669333c-0.256-186.24-0.426667-196.693333-2.432-196.693334-6.954667 0-66.986667-3.84-87.04-5.802666-13.141333-1.152-39.509333-3.84-58.453333-6.186667-19.029333-2.176-34.816-3.626667-35.114667-3.328C256.256-75.52 256 133.674667 256 388.992V853.248h0.213333V853.333333h182.954667l1.194667-3.413333c0.298667-0.682667 2.773333-7.509333 6.698666-18.645333l27.349334-75.861334 7.381333-21.162666-0.042667-0.981334z"  horiz-adv-x="1024" />

    
    <glyph glyph-name="netease-cloud-music-fill" unicode="&#59303;" d="M512-42.666667C276.352-42.666667 85.333333 148.352 85.333333 384S276.352 810.666667 512 810.666667s426.666667-191.018667 426.666667-426.666667-191.018667-426.666667-426.666667-426.666667z m-46.336 445.098667c10.24 35.84 45.866667 65.749333 84.906667 70.314667 7.978667-29.610667 16.554667-58.581333 23.253333-88.021334 2.261333-9.813333 1.578667-21.12-0.768-31.018666-9.088-38.058667-53.248-52.992-84.394667-29.226667-22.613333 17.28-31.658667 47.786667-22.997333 77.952z m162.858667 8.405333c-5.333333 19.84-10.922667 39.552-16.768 60.586667 21.333333-5.546667 38.741333-15.36 53.546666-29.781333 53.632-52.096 59.093333-140.8 12.544-201.856-48.426667-63.573333-134.613333-91.050667-214.528-68.48-98.218667 27.733333-162.474667 125.952-146.816 226.816 11.690667 75.434667 54.186667 128.170667 123.733334 159.274666 17.365333 7.765333 24.746667 23.893333 17.92 39.68-6.698667 15.530667-23.04 21.504-40.277334 14.634667-116.096-46.464-184.32-176.384-156.586666-298.112 30.421333-133.034667 149.12-220.288 284.8-207.317333 73.898667 7.04 134.997333 40.448 179.882666 100.138666 64.256 85.418667 55.338667 204.074667-19.754666 277.290667-28.416 27.733333-62.762667 43.434667-101.973334 49.194667-3.541333 0.554667-9.258667 2.218667-9.898666 4.522666-3.712 13.354667-7.68 26.965333-8.789334 40.704-1.237333 15.232 12.373333 27.306667 27.733334 27.52 10.794667 0.128 18.517333-5.546667 25.728-12.8 12.928-12.8 30.037333-13.738667 42.154666-2.645333 12.373333 11.264 12.629333 28.928 0.768 43.008-24.149333 28.672-67.669333 38.016-103.68 22.314667-36.138667-15.786667-56.362667-50.645333-51.2-89.301334 1.621333-11.946667 4.693333-23.765333 7.125334-35.925333l-11.093334-3.072a164.821333 164.821333 0 0 1-89.514666-60.330667c-39.296-52.053333-39.936-120.661333-1.749334-168.405333 54.357333-68.010667 159.872-54.784 192.981334 24.234667 12.117333 28.842667 11.733333 58.368 3.712 88.106666z"  horiz-adv-x="1024" />

    
    <glyph glyph-name="patreon-line" unicode="&#59304;" d="M640 170.666667a320 320 0 1 0 0 640 320 320 0 0 0 0-640z m0 85.333333a234.666667 234.666667 0 1 1 0 469.333333 234.666667 234.666667 0 0 1 0-469.333333zM85.333333 810.666667h213.333334v-853.333334H85.333333V810.666667z m85.333334-85.333334v-682.666666h42.666666V725.333333H170.666667z"  horiz-adv-x="1024" />

    
    <glyph glyph-name="netease-cloud-music-line" unicode="&#59305;" d="M444.629333 410.666667c-12.544-43.861333 0.512-88.064 33.450667-113.194667 45.269333-34.56 109.44-12.8 122.624 42.453333 3.413333 14.378667 4.394667 30.805333 1.152 45.056-9.813333 42.709333-22.186667 84.821333-33.792 127.829334-56.746667-6.570667-108.501333-50.005333-123.434667-102.144z m236.714667 12.245333c11.648-43.178667 12.16-86.058667-5.418667-128-48.128-114.773333-201.429333-133.973333-280.448-35.242667-55.552 69.418667-54.613333 169.002667 2.56 244.650667 33.28 44.032 76.970667 72.832 130.048 87.637333l16.170667 4.437334c-3.584 17.706667-8.021333 34.816-10.368 52.224-7.509333 56.192 21.845333 106.794667 74.410667 129.706666 52.309333 22.826667 115.541333 9.216 150.613333-32.426666 17.322667-20.437333 16.853333-46.08-1.066667-62.464-17.578667-16.085333-42.496-14.762667-61.226666 3.84-10.538667 10.496-21.76 18.773333-37.418667 18.602666-22.4-0.256-42.112-17.834667-40.32-39.978666 1.578667-19.968 7.381333-39.68 12.8-59.136 0.938667-3.328 9.216-5.76 14.421333-6.528 56.917333-8.405333 106.837333-31.189333 148.138667-71.509334 109.141333-106.368 122.069333-278.656 28.672-402.773333-65.237333-86.698667-154.026667-135.168-261.418667-145.450667-197.162667-18.773333-369.664 107.946667-413.866666 301.141334-40.32 176.810667 58.88 365.568 227.626666 433.024 25.002667 9.984 48.768 1.322667 58.496-21.248 9.898667-22.912-0.810667-46.336-26.026666-57.6-101.034667-45.226667-162.858667-121.813333-179.84-231.424-22.741333-146.474667 70.656-289.109333 213.333333-329.386667 116.181333-32.853333 241.408 7.082667 311.808 99.413333 67.669333 88.746667 59.733333 217.557333-18.218667 293.248a169.770667 169.770667 0 0 1-77.781333 43.221334c8.448-30.549333 16.597333-59.221333 24.32-87.978667z"  horiz-adv-x="1024" />

    
    </font>
</defs>
</svg>
