<?xml version="1.0" standalone="no"?>
<!DOCTYPE svg PUBLIC "-//W3C//DTD SVG 1.1//EN" "http://www.w3.org/Graphics/SVG/1.1/DTD/svg11.dtd" >
<!--
2013-9-30: Created.
-->
<svg>
<metadata>
Created by iconfont
</metadata>
<defs>

<font id="iconfont" horiz-adv-x="1024" >
  <font-face
    font-family="iconfont"
    font-weight="500"
    font-stretch="normal"
    units-per-em="1024"
    ascent="896"
    descent="-128"
  />
    <missing-glyph />
    
    <glyph glyph-name="flickr" unicode="&#58964;" d="M779.995195 830.711018 243.983315 830.711018c-98.713232 0-178.692798-80.088036-178.692798-178.715311l0-536.012903c0-98.713232 79.979566-178.692798 178.692798-178.692798l536.012903 0c98.713232 0 178.713264 79.979566 178.713264 178.692798L958.709483 651.995707C958.70846 750.622982 878.708428 830.711018 779.995195 830.711018zM869.286848 160.650119c0-74.001411-59.957557-133.958968-133.958968-133.958968L288.629141 26.691151c-73.979922 0-133.937478 59.957557-133.937478 133.958968L154.691663 607.349881c0 74.001411 59.957557 133.937478 133.937478 133.937478l446.698738 0c74.001411 0 133.958968-59.935044 133.958968-133.937478L869.286848 160.650119zM467.343429 406.280446c0-61.636802-50.056046-111.583354-111.691825-111.583354-61.721737 0-111.668289 49.946552-111.668289 111.583354 0 61.721737 49.946552 111.668289 111.668289 111.668289C417.287383 517.948735 467.343429 468.002183 467.343429 406.280446zM779.995195 406.280446c0-61.636802-49.946552-111.583354-111.691825-111.583354-61.61429 0-111.668289 49.946552-111.668289 111.583354 0 61.721737 50.053999 111.668289 111.668289 111.668289C730.049666 517.948735 779.995195 468.002183 779.995195 406.280446z"  horiz-adv-x="1024" />

    
    <glyph glyph-name="tag" unicode="&#59133;" d="M847.701 277.536 618.93 48.3c-11.182-10.716-26.558-17.239-42.398-17.239-15.842 0-31.218 6.523-41.934 17.239L201.46 381.903c-23.763 23.296-42.399 68.491-42.399 101.572L159.061 677.301c0 32.615 27.023 59.639 59.639 59.639l193.825 0c33.081 0 78.276-18.637 102.038-42.399l333.139-332.671c10.715-11.183 17.238-26.558 17.238-42.399S858.416 288.253 847.701 277.536zM308.157 647.481c-33.081 0-59.639-26.558-59.639-59.639s26.558-59.639 59.639-59.639 59.639 26.558 59.639 59.639S341.238 647.481 308.157 647.481z"  horiz-adv-x="1024" />

    
    <glyph glyph-name="linkedin" unicode="&#59032;" d="M0 896 0 896 0 896ZM512 875.52c-271.456 0-491.52-220.064-491.52-491.52s220.064-491.52 491.52-491.52 491.52 220.064 491.52 491.52-220.064 491.52-491.52 491.52zM391.68 180.288l-99.52 0 0 320.256 99.52 0 0-320.256zM341.312 539.84c-31.424 0-51.776 22.336-51.776 49.824 0 28.16 20.928 49.76 53.056 49.76s51.776-21.6 52.384-49.76c0.064-27.552-20.288-49.824-53.664-49.824zM755.136 180.288l-99.488 0 0 177.504c0 41.28-14.432 69.376-50.432 69.376-27.488 0-43.84-19.008-51.104-37.312-2.624-6.496-3.264-15.712-3.264-24.832l0-184.672-99.584 0 0 218.112c0 39.936-1.28 73.376-2.624 102.144l86.432 0 4.608-44.48 1.952 0c13.12 20.928 45.216 51.712 98.912 51.712 65.472 0 114.592-43.84 114.592-138.144l0-189.376z"  horiz-adv-x="1024" />

    
    <glyph glyph-name="mail" unicode="&#59225;" d="M512 896c-282.784 0-512-229.216-512-512s229.216-512 512-512 512 229.216 512 512-229.216 512-512 512zM256 640l512 0c9.152 0 18.016-1.952 26.144-5.664l-282.144-329.152-282.144 329.184c8.128 3.712 16.992 5.664 26.144 5.664zM192 192l0 384c0 1.344 0.064 2.688 0.128 4l187.648-218.944-185.6-185.6c-1.44 5.344-2.208 10.88-2.208 16.544zM768 128l-512 0c-5.664 0-11.2 0.768-16.544 2.208l182.112 182.112 90.432-105.504 90.432 105.504 182.112-182.112c-5.344-1.44-10.88-2.208-16.544-2.208zM832 192c0-5.664-0.768-11.2-2.208-16.544l-185.6 185.6 187.68 218.944c0.096-1.312 0.128-2.656 0.128-4l0-384z"  horiz-adv-x="1024" />

    
    <glyph glyph-name="search" unicode="&#58919;" d="M922.666667 19.626667 702.677333 247.594667C805.290667 384.298667 796.245333 581.866667 675.008 707.498667 609.344 775.552 523.264 809.578667 437.205333 809.578667 351.146667 809.578667 265.066667 775.552 199.402667 707.498667 68.074667 571.392 68.074667 350.741333 199.402667 214.656 265.066667 146.602667 351.146667 112.576 437.205333 112.576 510.058667 112.576 582.762667 137.237333 643.221333 185.984L863.210667-41.984 922.666667 19.626667ZM258.858667 276.266667C160.512 378.176 160.512 543.978667 258.858667 645.888 306.496 695.253333 369.834667 722.453333 437.205333 722.453333 504.576 722.453333 567.914667 695.253333 615.552 645.888 713.898667 543.978667 713.898667 378.176 615.552 276.266667 567.914667 226.901333 504.576 199.701333 437.205333 199.701333 369.834667 199.701333 306.496 226.901333 258.858667 276.266667Z"  horiz-adv-x="1024" />

    
    <glyph glyph-name="mail01" unicode="&#58946;" d="M814.512 597.15h-603.558v-1.464h-4.395v-424.833h610.884v424.833h-4.395l1.464 1.464zM512.733 544.412h178.725l-77.642-77.642-101.081-104.012-102.547 104.012-76.177 77.642h178.723zM260.762 223.588h-2.931v320.823h2.931l112.802-114.266 45.412-46.879-43.948-43.948-114.266-115.73zM512.733 223.588h-178.725l77.642 79.108 39.553 41.019 42.486-41.021 19.044-19.044 17.58 19.044 41.019 43.948 42.484-43.948v-1.464l77.642-77.642h-178.725zM766.169 223.588h-2.931l-112.802 114.266-43.948 46.879 43.948 45.414 112.802 114.266h2.931v-320.825zM873.11 745.11c-92.291 93.757-219.742 150.89-360.376 150.89-142.1 0-269.552-57.133-361.843-150.89-93.757-92.291-150.89-219.742-150.89-361.843 0-140.634 57.133-268.085 150.89-360.378 92.291-93.755 219.742-150.888 361.843-150.888 140.634 0 268.085 57.133 360.378 150.89 93.757 92.291 150.89 219.742 150.89 360.378-0.002 142.098-57.135 269.55-150.893 361.841zM832.092 63.908c-82.037-82.037-194.839-131.846-319.359-131.846-125.985 0-238.787 49.807-320.823 131.846-82.037 82.037-131.846 194.839-131.846 319.359 0 125.985 49.807 238.787 131.846 320.823 82.037 82.037 194.839 131.846 320.823 131.846 124.52 0 237.322-49.807 319.359-131.846 82.037-82.037 131.846-194.839 131.846-320.823 0-124.52-49.809-237.32-131.846-319.359z"  horiz-adv-x="1025" />

    
    <glyph glyph-name="wechat" unicode="&#59019;" d="M692.313 548.73c11.13 0 22.261 0 35.617-2.226-31.165 144.696-186.991 253.774-365.078 253.774-198.122 0-360.626-135.791-360.626-307.2 0-100.174 53.426-180.313 144.696-242.643l-35.617-111.304 126.887 62.33c44.522-8.904 82.365-17.809 126.887-17.809 11.13 0 22.261 0 33.391 2.226-6.678 24.487-11.13 48.974-11.13 75.687-2.226 158.052 133.565 287.165 304.974 287.165v0zM498.643 646.678c26.713 0 44.522-17.809 44.522-44.522s-17.809-44.522-44.522-44.522c-26.713 0-53.426 17.809-53.426 44.522 0 26.713 26.713 44.522 53.426 44.522v0zM244.87 555.409c-26.713 0-53.426 17.809-53.426 44.522s26.713 44.522 53.426 44.522c26.713 0 44.522-17.809 44.522-44.522 2.226-26.713-15.583-44.522-44.522-44.522v0zM1021.774 266.017c0 144.696-144.696 262.678-307.2 262.678-171.409 0-307.2-117.983-307.2-262.678 0-144.696 135.791-262.678 307.2-262.678 35.617 0 71.235 8.904 109.078 17.809l97.948-53.426-26.713 91.27c73.461 53.426 126.887 126.887 126.887 207.026v0zM616.626 312.765c-17.809 0-35.617 17.809-35.617 35.617 0 17.809 17.809 35.617 35.617 35.617 26.713 0 44.522-17.809 44.522-35.617 0-17.809-17.809-35.617-44.522-35.617v0zM814.748 312.765c-17.809 0-35.617 17.809-35.617 35.617 0 17.809 17.809 35.617 35.617 35.617 26.713 0 44.522-17.809 44.522-35.617-0-17.809-17.809-35.617-44.522-35.617v0zM814.748 312.765z"  horiz-adv-x="1024" />

    
    <glyph glyph-name="facebook" unicode="&#58881;" d="M1024 384c0 282.763636-229.236364 512-512 512C229.236364 896 0 666.763636 0 384s229.236364-512 512-512C794.763636-128 1024 101.23636399999998 1024 384zM374.504727 384L374.504727 481.978182l60.043636 0L434.548364 541.230545c0 79.918545 23.877818 137.495273 111.383273 137.495273l104.075636 0 0-97.745455-73.262545 0c-36.724364 0-45.056-24.389818-45.056-49.943273l0-49.058909 112.919273 0L629.201455 384l-97.512727 0 0-295.517091L434.548364 88.48290899999995 434.548364 384 374.504727 384z"  horiz-adv-x="1024" />

    
    <glyph glyph-name="twitter" unicode="&#60202;" d="M958.293333 640C925.44 625.066667 890.026667 615.253333 853.333333 610.56 890.88 633.173333 919.893333 669.013333 933.546667 712.106667 898.133333 690.773333 858.88 675.84 817.493333 667.306667 783.786667 704 736.426667 725.333333 682.666667 725.333333 582.4 725.333333 500.48 643.413333 500.48 542.293333 500.48 527.786667 502.186667 513.706667 505.173333 500.48 353.28 508.16 218.026667 581.12 128 691.626667 112.213333 664.746667 103.253333 633.173333 103.253333 599.893333 103.253333 536.32 135.253333 480 184.746667 448 154.453333 448 126.293333 456.533333 101.546667 469.333333 101.546667 469.333333 101.546667 469.333333 101.546667 468.053333 101.546667 379.306667 164.693333 305.066667 248.32 288.426667 232.96 284.16 216.746667 282.026667 200.106667 282.026667 188.586667 282.026667 177.066667 283.306667 165.973333 285.44 189.013333 213.333333 256 159.573333 336.64 158.293333 274.346667 108.8 195.413333 79.786667 109.226667 79.786667 94.72 79.786667 80.213333 80.64 65.706667 82.346667 146.773333 30.293333 243.2 0 346.453333 0 682.666667 0 867.413333 279.04 867.413333 520.96 867.413333 529.066667 867.413333 536.746667 866.986667 544.853333 902.826667 570.453333 933.546667 602.88 958.293333 640Z"  horiz-adv-x="1024" />

    
    <glyph glyph-name="love" unicode="&#59205;" d="M513.401929 17.369855c-20.164249 0-207.085452 164.513868-289.018509 253.203816-46.00273 49.79715-91.849918 133.603881-91.849918 194.943924 0 130.201387 94.799086 236.113579 211.332173 236.113579 71.160713 0 131.555222-59.236126 168.815847-120.437 37.260625 61.200874 97.632621 120.437 168.814824 120.437 116.526947 0 211.32808-105.912192 211.32808-236.113579 0-61.476143-41.280172-148.617829-92.28073-195.33585C710.48047 187.678706 534.73991 17.369855 513.401929 17.369855z"  horiz-adv-x="1024" />

    
    <glyph glyph-name="github" unicode="&#59154;" d="M950.857143 384q0-143.428571-83.714286-258t-216.285714-158.571429q-15.428571-2.857143-22.571429 4t-7.142857 17.142857l0 120.571429q0 55.428571-29.714286 81.142857 32.571429 3.428571 58.571429 10.285714t53.714286 22.285714 46.285714 38 30.285714 60 11.714286 86q0 69.142857-45.142857 117.714286 21.142857 52-4.571429 116.571429-16 5.142857-46.285714-6.285714t-52.571429-25.142857l-21.714286-13.714286q-53.142857 14.857143-109.714286 14.857143t-109.714286-14.857143q-9.142857 6.285714-24.285714 15.428571t-47.714286 22-49.142857 7.714286q-25.142857-64.571429-4-116.571429-45.142857-48.571429-45.142857-117.714286 0-48.571429 11.714286-85.714286t30-60 46-38.285714 53.714286-22.285714 58.571429-10.285714q-22.857143-20.571429-28-58.857143-12-5.714286-25.714286-8.571429t-32.571429-2.857143-37.428571 12.285714-31.714286 35.714286q-10.857143 18.285714-27.714286 29.714286t-28.285714 13.714286l-11.428571 1.714286q-12 0-16.571429-2.571429t-2.857143-6.571429 5.142857-8 7.428571-6.857143l4-2.857143q12.571429-5.714286 24.857143-21.714286t18-29.142857l5.714286-13.142857q7.428571-21.714286 25.142857-35.142857t38.285714-17.142857 39.714286-4 31.714286 2l13.142857 2.285714q0-21.714286 2.857143-50.857143t2.857143-30.857143q0-10.285714-7.428571-17.142857t-22.857143-4q-132.571429 44-216.285714 158.571429t-83.714286 258q0 119.428571 58.857143 220.285714t159.714286 159.714286 220.285714 58.857143 220.285714-58.857143 159.714286-159.714286 58.857143-220.285714z"  horiz-adv-x="1024" />

    
    <glyph glyph-name="pinterest" unicode="&#59327;" d="M950.857143 384q0-119.428571-58.857143-220.285714t-159.714286-159.714286-220.285714-58.857143q-63.428571 0-124.571429 18.285714 33.714286 53.142857 44.571429 93.714286 5.142857 19.428571 30.857143 120.571429 11.428571-22.285714 41.714286-38.571429t65.142857-16.285714q69.142857 0 123.428571 39.142857t84 107.714286 29.714286 154.285714q0 65.142857-34 122.285714t-98.571429 93.142857-145.714286 36q-60 0-112-16.571429t-88.285714-44-62.285714-63.142857-38.285714-74-12.285714-76.571429q0-59.428571 22.857143-104.571429t66.857143-63.428571q17.142857-6.857143 21.714286 11.428571 1.142857 4 4.571429 17.714286t4.571429 17.142857q3.428571 13.142857-6.285714 24.571429-29.142857 34.857143-29.142857 86.285714 0 86.285714 59.714286 148.285714t156.285714 62q86.285714 0 134.571429-46.857143t48.285714-121.714286q0-97.142857-39.142857-165.142857t-100.285714-68q-34.857143 0-56 24.857143t-13.142857 59.714286q4.571429 20 15.142857 53.428571t17.142857 58.857143 6.571429 43.142857q0 28.571429-15.428571 47.428571t-44 18.857143q-35.428571 0-60-32.571429t-24.571429-81.142857q0-41.714286 14.285714-69.714286l-56.571429-238.857143q-9.714286-40-7.428571-101.142857-117.714286 52-190.285714 160.571429t-72.571429 241.714286q0 119.428571 58.857143 220.285714t159.714286 159.714286 220.285714 58.857143 220.285714-58.857143 159.714286-159.714286 58.857143-220.285714z"  horiz-adv-x="1024" />

    
    <glyph glyph-name="up" unicode="&#59216;" d="M371.812167 531.537218 150.102646 309.829743c-32.651654-32.652677-32.651654-85.591377 0-118.243031 32.652677-32.652677 85.591377-32.652677 118.244055 0L478.589053 402.272155c17.272385 15.095813 44.333718 17.229406 61.45363 0l211.132628-210.686467c32.652677-32.652677 85.590354-32.652677 118.242008 0 32.652677 32.652677 32.652677 85.591377 0 118.243031L647.712915 531.533125C552.787962 626.460124 471.375767 631.101841 371.812167 531.537218L371.812167 531.537218zM371.812167 531.537218"  horiz-adv-x="1024" />

    
    <glyph glyph-name="left" unicode="&#58890;" d="M691.908-53.511l75.37 89.491c10.964 12.998 10.285 32.865-1.499 44.379l-286.279 300.374 277.935 310.327c11.338 12.191 11.035 32.285-0.639 44.85l-80.467 86.565c-11.68 12.584-30.356 12.894-41.663 0.716l-377.433-421.426c-11.332-12.183-11.041-32.267 0.658-44.844l80.467-86.565c1.772-1.911 3.706-3.533 5.751-4.877l306.62-321.704c11.776-11.501 30.216-10.304 41.179 2.714z"  horiz-adv-x="1024" />

    
    <glyph glyph-name="folder" unicode="&#58936;" d="M170.666667 810.666667l213.333333 0 85.333333-128 384 0q52.992 0 90.496-37.504t37.504-90.496l0-469.333333q0-52.992-37.504-90.496t-90.496-37.504l-682.666667 0q-52.992 0-90.496 37.504t-37.504 90.496l0 597.333333q0 52.992 37.504 90.496t90.496 37.504zM423.68 597.333333l-82.346667 128-170.666667 0q-17.664 0-30.165333-12.501333t-12.501333-30.165333l0-597.333333q0-17.664 12.501333-30.165333t30.165333-12.501333l682.666667 0q17.664 0 30.165333 12.501333t12.501333 30.165333l0 469.333333q0 17.664-12.501333 30.165333t-30.165333 12.501333l-429.653333 0z"  horiz-adv-x="1024" />

    
    <glyph glyph-name="close" unicode="&#59093;" d="M887.2 121.8 624.8 385.2l263 260c10.8 10.8 10.8 28.4 0 39.2l-74.8 75.2c-5.2 5.2-12.2 8-19.6 8-7.4 0-14.4-3-19.6-8L512 500.4 249.8 759.4c-5.2 5.2-12.2 8-19.6 8-7.4 0-14.4-3-19.6-8L136 684.2c-10.8-10.8-10.8-28.4 0-39.2l263-260L136.8 121.8c-5.2-5.2-8.2-12.2-8.2-19.6 0-7.4 2.8-14.4 8.2-19.6l74.8-75.2c5.4-5.4 12.4-8.2 19.6-8.2 7 0 14.2 2.6 19.6 8.2L512 269.8l261.4-262.2c5.4-5.4 12.4-8.2 19.6-8.2 7 0 14.2 2.6 19.6 8.2l74.8 75.2c5.2 5.2 8.2 12.2 8.2 19.6C895.4 109.6 892.4 116.6 887.2 121.8z"  horiz-adv-x="1024" />

    
    <glyph glyph-name="dribbble" unicode="&#59030;" d="M748.076 24.048c-4.827 27.348-27.348 157.662-83.658 318.542 135.137 22.523 254.189-14.478 268.669-19.305-17.696-123.879-86.874-231.666-185.012-299.236zM506.757-53.175c-99.747 0-191.446 35.394-265.452 94.919 8.043 16.090 94.919 191.446 339.456 278.321 1.609 0 1.609 0 3.219 1.609 61.134-162.49 85.266-299.236 91.7-337.849-51.483-24.132-109.398-37.003-168.924-37.003zM73.989 394.070v12.87c19.305 0 228.449-3.219 444.029 62.742 12.87-25.741 24.132-49.872 35.394-75.615-6.434-1.609-11.263-3.219-17.696-4.827-223.622-74.004-341.065-276.714-352.325-294.411-65.962 80.441-109.398 185.012-109.398 299.236zM323.352 797.88c11.263-16.090 88.485-127.095 160.88-257.409-202.708-54.7-381.285-54.7-400.59-54.7 27.348 138.356 119.053 252.582 239.712 312.108zM506.757 839.71c109.398 0 210.752-41.828 286.366-112.617-8.043-11.263-72.396-101.356-226.841-160.88-70.787 133.531-149.619 244.537-160.88 260.625 32.174 8.043 65.962 12.87 101.356 12.87zM841.384 675.611c59.525-75.615 96.527-172.142 98.137-278.321-14.478 3.219-157.662 33.786-300.846 14.478-3.219 8.043-6.434 16.090-9.653 22.523-9.653 22.523-19.305 43.437-28.959 64.353 160.88 69.178 233.277 164.097 241.321 176.967z"  horiz-adv-x="1024" />

    
    <glyph glyph-name="instagram" unicode="&#59062;" d="M658.285714 384q0 60.571429-42.857143 103.428571t-103.428571 42.857143-103.428571-42.857143-42.857143-103.428571 42.857143-103.428571 103.428571-42.857143 103.428571 42.857143 42.857143 103.428571z m78.857143 0q0-93.714286-65.714286-159.428571t-159.428571-65.714286-159.428571 65.714286-65.714286 159.428571 65.714286 159.428571 159.428571 65.714286 159.428571-65.714286 65.714286-159.428571z m61.714286 234.285714q0-21.714286-15.428572-37.142857t-37.142857-15.428571-37.142857 15.428571-15.428571 37.142857 15.428571 37.142857 37.142857 15.428572 37.142857-15.428572 15.428572-37.142857zM512 744q-4 0-43.714286 0.285714t-60.285714 0-55.142857-1.714285-58.857143-5.714286T253.142857 726.285714q-28.571429-11.428571-50.285714-33.142857t-33.142857-50.285714q-6.285714-16.571429-10.571429-40.857143t-5.714286-58.857143-1.714285-55.142857 0-60.285714 0.285714-43.714286-0.285714-43.714286 0-60.285714 1.714285-55.142857 5.714286-58.857143T169.714286 125.142857q11.428571-28.571429 33.142857-50.285714t50.285714-33.142857q16.571429-6.285714 40.857143-10.571429t58.857143-5.714286 55.142857-1.714285 60.285714 0 43.714286 0.285714 43.714286-0.285714 60.285714 0 55.142857 1.714285 58.857143 5.714286 40.857143 10.571429q28.571429 11.428571 50.285714 33.142857t33.142857 50.285714q6.285714 16.571429 10.571429 40.857143t5.714286 58.857143 1.714285 55.142857 0 60.285714-0.285714 43.714286 0.285714 43.714286 0 60.285714-1.714285 55.142857-5.714286 58.857143T854.285714 642.857143q-11.428571 28.571429-33.142857 50.285714t-50.285714 33.142857q-16.571429 6.285714-40.857143 10.571429t-58.857143 5.714286-55.142857 1.714285-60.285714 0-43.714286-0.285714z m438.857143-360q0-130.857143-2.857143-181.142857-5.714286-118.857143-70.857143-184t-184-70.857143q-50.285714-2.857143-181.142857-2.857143t-181.142857 2.857143q-118.857143 5.714286-184 70.857143T76 202.857143q-2.857143 50.285714-2.857143 181.142857t2.857143 181.142857q5.714286 118.857143 70.857143 184t184 70.857143q50.285714 2.857143 181.142857 2.857143t181.142857-2.857143q118.857143-5.714286 184-70.857143t70.857143-184q2.857143-50.285714 2.857143-181.142857z"  horiz-adv-x="1024" />

    
    <glyph glyph-name="tumblr" unicode="&#58911;" d="M512-128c282.76736 0 512 229.23264 512 512S794.76736 896 512 896 0 666.76736 0 384s229.23264-512 512-512z m16.67072 821.57568v-157.77792h148.13184v-97.97632h-148.13184v-160.07168c0-36.18816 1.92512-59.43296 5.75488-69.69344 3.82976-10.28096 10.97728-18.47296 21.4016-24.61696 13.78304-8.27392 29.5936-12.41088 47.37024-12.41088 31.58016 0 63.01696 10.26048 94.3104 30.80192V103.42399999999998c-26.68544-12.57472-50.83136-21.4016-72.45824-26.46016-21.62688-5.05856-44.99456-7.5776-70.144-7.5776-28.52864 0-53.73952 3.60448-75.6736 10.81344-21.9136 7.18848-40.63232 17.46944-56.1152 30.80192-15.50336 13.35296-26.2144 27.52512-32.21504 42.55744-5.98016 15.03232-8.97024 36.80256-8.97024 65.3312v218.9312H312.9344V526.1312c24.53504 7.9872 45.54752 19.41504 63.01696 34.28352a171.4176 171.4176 0 0 1 42.10688 53.57568c10.56768 20.86912 17.85856 47.39072 21.83168 79.58528h88.7808z"  horiz-adv-x="1024" />

    
    <glyph glyph-name="telegram" unicode="&#59185;" d="M679.424 149.138286l84.004571 395.995428c7.424 34.852571-12.580571 48.566857-35.437714 40.009143l-493.714286-190.281143c-33.718857-13.129143-33.133714-32-5.705142-40.557714l126.281142-39.424 293.156572 184.576c13.714286 9.142857 26.294857 3.986286 16.018286-5.156571l-237.129143-214.272-9.142857-130.304c13.129143 0 18.870857 5.705143 25.709714 12.580571l61.696 59.428571 128-94.281142c23.442286-13.129143 40.009143-6.290286 46.299428 21.723428zM1024 384c0-282.843429-229.156571-512-512-512S0 101.156571 0 384 229.156571 896 512 896s512-229.156571 512-512z"  horiz-adv-x="1024" />

    
    <glyph glyph-name="xihuan" unicode="&#59503;" d="M669.781333 765.248c71.637333 11.093333 138.901333-11.477333 193.344-64.533333 55.317333-53.930667 81.834667-124.992 74.282667-199.530667-7.466667-73.642667-46.549333-146.368-112.32-210.474667-18.346667-17.898667-67.669333-66.218667-138.453333-135.637333-31.829333-31.232-65.706667-64.448-99.84-97.984L553.6 24.533333l-13.184-12.949333a40.554667 40.554667 0 0 0-56.832 0l-114.602667 112.64-24.213333 23.722667a677626.346667 677626.346667 0 0 1-145.856 142.762666C133.141333 354.816 94.08 427.52 86.613333 501.184c-7.552 74.538667 18.944 145.6 74.282667 199.530667 54.442667 53.056 121.706667 75.605333 193.344 64.533333 53.162667-8.213333 107.093333-34.688 157.781333-76.949333 50.709333 42.24 104.618667 68.736 157.781334 76.949333z"  horiz-adv-x="1024" />

    
    <glyph glyph-name="xihuan1" unicode="&#59504;" d="M523.733333 54.976l33.173334 32.576 99.690666 97.813333c70.976 69.632 120.32 117.973333 138.709334 135.893334 59.008 57.514667 93.248 121.28 99.626666 184.234666 6.250667 61.44-15.488 119.744-61.589333 164.672-44.992 43.84-98.88 61.909333-157.034667 52.906667-49.365333-7.616-101.034667-34.624-150.016-78.848a21.333333 21.333333 0 0 0-28.586666 0c-48.981333 44.224-100.650667 71.232-150.016 78.869333-58.154667 8.96-112.042667-9.088-157.034667-52.928-46.101333-44.928-67.84-103.210667-61.610667-164.693333 6.4-62.933333 40.64-126.72 99.648-184.213333a100207.573333 100207.573333 0 0 0 145.92-142.826667l24.256-23.765333L512 43.477333l11.733333 11.498667z m-11.733333-11.52l-1.493333-1.429333A2.133333 2.133333 0 0 0 512 42.666667c0.512 0 1.045333-0.213333 1.493333-0.64l-1.493333 1.450666z m157.781333 721.792c71.637333 11.093333 138.901333-11.477333 193.344-64.533333 55.317333-53.930667 81.834667-124.992 74.282667-199.530667-7.466667-73.642667-46.549333-146.368-112.32-210.474667-18.346667-17.898667-67.669333-66.218667-138.453333-135.637333-31.829333-31.232-65.706667-64.448-99.84-97.984L553.6 24.533333l-13.184-12.949333a40.554667 40.554667 0 0 0-56.832 0l-114.602667 112.64-24.213333 23.722667a677626.346667 677626.346667 0 0 1-145.856 142.762666C133.141333 354.816 94.08 427.52 86.613333 501.184c-7.552 74.538667 18.944 145.6 74.282667 199.530667 54.442667 53.056 121.706667 75.605333 193.344 64.533333 53.162667-8.213333 107.093333-34.688 157.781333-76.949333 50.709333 42.24 104.618667 68.736 157.781334 76.949333z"  horiz-adv-x="1024" />

    
    <glyph glyph-name="right" unicode="&#59101;" d="M803.758 381.983c-0.001 0.311-0.013 0.622-0.018 0.933-0.162 23.974-9.386 47.811-27.743 65.903-0.084 0.082-0.172 0.157-0.256 0.239-0.154 0.154-0.296 0.315-0.451 0.468L417.861 801.904c-37.685 37.153-99.034 37.476-136.331 0.718-37.297-36.758-36.979-97.231 0.707-134.384l290.361-286.257-290.362-286.257c-37.685-37.153-38.004-97.625-0.707-134.383 37.297-36.758 98.646-36.435 136.331 0.718l357.43 352.378c0.155 0.153 0.297 0.314 0.451 0.468 0.084 0.082 0.172 0.157 0.256 0.239 18.354 18.089 27.578 41.922 27.743 65.892 0.004 0.315 0.017 0.631 0.018 0.947z"  horiz-adv-x="1024" />

    
    <glyph glyph-name="medium-circle-fill" unicode="&#59527;" d="M512 832C264.6 832 64 631.4 64 384s200.6-448 448-448 448 200.6 448 448S759.4 832 512 832z m256-253.7l-40.8-39.1c-3.6-2.7-5.3-7.1-4.6-11.4v-287.7c-0.7-4.4 1-8.8 4.6-11.4l40-39.1v-8.7H566.4v8.3l41.3 40.1c4.1 4.1 4.1 5.3 4.1 11.4V473.5l-115-291.6h-15.5L347.5 473.5V278c-1.2-8.2 1.7-16.5 7.5-22.4l53.8-65.1v-8.7H256v8.7l53.8 65.1c5.8 5.9 8.3 14.3 7 22.4V504c0.7 6.3-1.7 12.4-6.5 16.7l-47.8 57.6V587H411l114.6-251.5 100.9 251.3H768v-8.5z"  horiz-adv-x="1024" />

    


  </font>
</defs>
</svg>
